  0
SECTION
  2
HEADER
  9
$ACADVER
  1
AC1027
  9
$ACADMAINTVER
 70
    20
  9
$DWGCODEPAGE
  3
ANSI_1252
  9
$LASTSAVEDBY
  1
se-milkar
  9
$CUSTOMPROPERTYTAG
  1
AmdtFileType
  9
$CUSTOMPROPERTY
  1
84
  9
$REQUIREDVERSIONS
160
                 0
  9
$INSBASE
 10
0.0
 20
0.0
 30
0.0
  9
$EXTMIN
 10
6.445227147629111
 20
-0.0271333804998903
 30
-0.0015258207003583
  9
$EXTMAX
 10
177.1755376268574
 20
271.7388019504108
 30
0.0000000349246037
  9
$LIMMIN
 10
0.0
 20
0.0
  9
$LIMMAX
 10
420.0
 20
297.0
  9
$ORTHOMODE
 70
     0
  9
$REGENMODE
 70
     1
  9
$FILLMODE
 70
     1
  9
$QTEXTMODE
 70
     0
  9
$MIRRTEXT
 70
     0
  9
$LTSCALE
 40
1.0
  9
$ATTMODE
 70
     1
  9
$TEXTSIZE
 40
3.5
  9
$TRACEWID
 40
1.0
  9
$TEXTSTYLE
  7
STANDARD
  9
$CLAYER
  8
AM_0
  9
$CELTYPE
  6
BYLAYER
  9
$CECOLOR
 62
   256
  9
$CELTSCALE
 40
1.0
  9
$DISPSILH
 70
     0
  9
$DIMSCALE
 40
1.0
  9
$DIMASZ
 40
2.5
  9
$DIMEXO
 40
1.0
  9
$DIMDLI
 40
10.0
  9
$DIMRND
 40
0.0
  9
$DIMDLE
 40
0.0
  9
$DIMEXE
 40
1.0
  9
$DIMTP
 40
0.1
  9
$DIMTM
 40
0.1
  9
$DIMTXT
 40
3.5
  9
$DIMCEN
 40
0.0
  9
$DIMTSZ
 40
0.0
  9
$DIMTOL
 70
     0
  9
$DIMLIM
 70
     0
  9
$DIMTIH
 70
     0
  9
$DIMTOH
 70
     0
  9
$DIMSE1
 70
     0
  9
$DIMSE2
 70
     0
  9
$DIMTAD
 70
     1
  9
$DIMZIN
 70
     8
  9
$DIMBLK
  1

  9
$DIMASO
 70
     1
  9
$DIMSHO
 70
     1
  9
$DIMPOST
  1

  9
$DIMAPOST
  1
"
  9
$DIMALT
 70
     0
  9
$DIMALTD
 70
     3
  9
$DIMALTF
 40
0.0393701
  9
$DIMLFAC
 40
1.0
  9
$DIMTOFL
 70
     1
  9
$DIMTVP
 40
0.0
  9
$DIMTIX
 70
     0
  9
$DIMSOXD
 70
     0
  9
$DIMSAH
 70
     0
  9
$DIMBLK1
  1

  9
$DIMBLK2
  1

  9
$DIMSTYLE
  2
AM_ISO
  9
$DIMCLRD
 70
   256
  9
$DIMCLRE
 70
   256
  9
$DIMCLRT
 70
     2
  9
$DIMTFAC
 40
0.71
  9
$DIMGAP
 40
1.5
  9
$DIMJUST
 70
     0
  9
$DIMSD1
 70
     0
  9
$DIMSD2
 70
     0
  9
$DIMTOLJ
 70
     0
  9
$DIMTZIN
 70
     8
  9
$DIMALTZ
 70
     0
  9
$DIMALTTZ
 70
     0
  9
$DIMUPT
 70
     0
  9
$DIMDEC
 70
     2
  9
$DIMTDEC
 70
     2
  9
$DIMALTU
 70
     2
  9
$DIMALTTD
 70
     3
  9
$DIMTXSTY
  7
STANDARD
  9
$DIMAUNIT
 70
     0
  9
$DIMADEC
 70
     0
  9
$DIMALTRND
 40
0.0
  9
$DIMAZIN
 70
     2
  9
$DIMDSEP
 70
    46
  9
$DIMATFIT
 70
     3
  9
$DIMFRAC
 70
     0
  9
$DIMLDRBLK
  1

  9
$DIMLUNIT
 70
     2
  9
$DIMLWD
 70
    -1
  9
$DIMLWE
 70
    -1
  9
$DIMTMOVE
 70
     0
  9
$DIMFXL
 40
1.0
  9
$DIMFXLON
 70
     0
  9
$DIMJOGANG
 40
0.7853981633974483
  9
$DIMTFILL
 70
     0
  9
$DIMTFILLCLR
 70
     0
  9
$DIMARCSYM
 70
     0
  9
$DIMLTYPE
  6

  9
$DIMLTEX1
  6

  9
$DIMLTEX2
  6

  9
$DIMTXTDIRECTION
 70
     0
  9
$LUNITS
 70
     2
  9
$LUPREC
 70
     2
  9
$SKETCHINC
 40
1.0
  9
$FILLETRAD
 40
2.5
  9
$AUNITS
 70
     0
  9
$AUPREC
 70
     0
  9
$MENU
  1
.
  9
$ELEVATION
 40
0.0
  9
$PELEVATION
 40
0.0
  9
$THICKNESS
 40
0.0
  9
$LIMCHECK
 70
     0
  9
$CHAMFERA
 40
2.5
  9
$CHAMFERB
 40
2.5
  9
$CHAMFERC
 40
20.0
  9
$CHAMFERD
 40
0.0
  9
$SKPOLY
 70
     1
  9
$TDCREATE
 40
2457557.414590266
  9
$TDUCREATE
 40
2457557.331256933
  9
$TDUPDATE
 40
2457563.657156910
  9
$TDUUPDATE
 40
2457563.573823577
  9
$TDINDWG
 40
0.0024315278
  9
$TDUSRTIMER
 40
0.0024313426
  9
$USRTIMER
 70
     1
  9
$ANGBASE
 50
0.0
  9
$ANGDIR
 70
     0
  9
$PDMODE
 70
     0
  9
$PDSIZE
 40
0.0
  9
$PLINEWID
 40
0.0
  9
$SPLFRAME
 70
     0
  9
$SPLINETYPE
 70
     6
  9
$SPLINESEGS
 70
     8
  9
$HANDSEED
  5
46CF
  9
$SURFTAB1
 70
     6
  9
$SURFTAB2
 70
     6
  9
$SURFTYPE
 70
     6
  9
$SURFU
 70
     6
  9
$SURFV
 70
     6
  9
$UCSBASE
  2

  9
$UCSNAME
  2

  9
$UCSORG
 10
0.0
 20
0.0
 30
0.0
  9
$UCSXDIR
 10
1.0
 20
0.0
 30
0.0
  9
$UCSYDIR
 10
0.0
 20
1.0
 30
0.0
  9
$UCSORTHOREF
  2

  9
$UCSORTHOVIEW
 70
     0
  9
$UCSORGTOP
 10
0.0
 20
0.0
 30
0.0
  9
$UCSORGBOTTOM
 10
0.0
 20
0.0
 30
0.0
  9
$UCSORGLEFT
 10
0.0
 20
0.0
 30
0.0
  9
$UCSORGRIGHT
 10
0.0
 20
0.0
 30
0.0
  9
$UCSORGFRONT
 10
0.0
 20
0.0
 30
0.0
  9
$UCSORGBACK
 10
0.0
 20
0.0
 30
0.0
  9
$PUCSBASE
  2

  9
$PUCSNAME
  2

  9
$PUCSORG
 10
0.0
 20
0.0
 30
0.0
  9
$PUCSXDIR
 10
1.0
 20
0.0
 30
0.0
  9
$PUCSYDIR
 10
0.0
 20
1.0
 30
0.0
  9
$PUCSORTHOREF
  2

  9
$PUCSORTHOVIEW
 70
     0
  9
$PUCSORGTOP
 10
0.0
 20
0.0
 30
0.0
  9
$PUCSORGBOTTOM
 10
0.0
 20
0.0
 30
0.0
  9
$PUCSORGLEFT
 10
0.0
 20
0.0
 30
0.0
  9
$PUCSORGRIGHT
 10
0.0
 20
0.0
 30
0.0
  9
$PUCSORGFRONT
 10
0.0
 20
0.0
 30
0.0
  9
$PUCSORGBACK
 10
0.0
 20
0.0
 30
0.0
  9
$USERI1
 70
     0
  9
$USERI2
 70
     0
  9
$USERI3
 70
     0
  9
$USERI4
 70
     0
  9
$USERI5
 70
     0
  9
$USERR1
 40
0.0
  9
$USERR2
 40
0.0
  9
$USERR3
 40
0.0
  9
$USERR4
 40
0.0
  9
$USERR5
 40
0.0
  9
$WORLDVIEW
 70
     1
  9
$SHADEDGE
 70
     3
  9
$SHADEDIF
 70
    70
  9
$TILEMODE
 70
     1
  9
$MAXACTVP
 70
    48
  9
$PINSBASE
 10
0.0
 20
0.0
 30
0.0
  9
$PLIMCHECK
 70
     0
  9
$PEXTMIN
 10
1.000000000000000E+20
 20
1.000000000000000E+20
 30
1.000000000000000E+20
  9
$PEXTMAX
 10
-1.000000000000000E+20
 20
-1.000000000000000E+20
 30
-1.000000000000000E+20
  9
$PLIMMIN
 10
0.0
 20
0.0
  9
$PLIMMAX
 10
12.0
 20
9.0
  9
$UNITMODE
 70
     0
  9
$VISRETAIN
 70
     1
  9
$PLINEGEN
 70
     0
  9
$PSLTSCALE
 70
     1
  9
$TREEDEPTH
 70
  3020
  9
$CMLSTYLE
  2
STANDARD
  9
$CMLJUST
 70
     0
  9
$CMLSCALE
 40
1.0
  9
$PROXYGRAPHICS
 70
     1
  9
$MEASUREMENT
 70
     1
  9
$CELWEIGHT
370
    -1
  9
$ENDCAPS
280
     0
  9
$JOINSTYLE
280
     0
  9
$LWDISPLAY
290
     0
  9
$INSUNITS
 70
     4
  9
$HYPERLINKBASE
  1

  9
$STYLESHEET
  1
@LAYOUT.CTB
  9
$XEDIT
290
     1
  9
$CEPSNTYPE
380
     0
  9
$PSTYLEMODE
290
     1
  9
$FINGERPRINTGUID
  2
{5F51008A-B034-4087-BAB9-328BAE6FD5D1}
  9
$VERSIONGUID
  2
{45EB93F5-521B-4ED1-B28F-F141B37D7BB9}
  9
$EXTNAMES
290
     1
  9
$PSVPSCALE
 40
0.0
  9
$OLESTARTUP
290
     0
  9
$SORTENTS
280
   127
  9
$INDEXCTL
280
     1
  9
$HIDETEXT
280
     0
  9
$XCLIPFRAME
280
     0
  9
$HALOGAP
280
     0
  9
$OBSCOLOR
 70
   257
  9
$OBSLTYPE
280
     0
  9
$INTERSECTIONDISPLAY
280
     0
  9
$INTERSECTIONCOLOR
 70
   257
  9
$DIMASSOC
280
     2
  9
$PROJECTNAME
  1

  9
$CAMERADISPLAY
290
     0
  9
$LENSLENGTH
 40
50.0
  9
$CAMERAHEIGHT
 40
0.0
  9
$STEPSPERSEC
 40
2.0
  9
$STEPSIZE
 40
6.0
  9
$3DDWFPREC
 40
2.0
  9
$PSOLWIDTH
 40
0.25
  9
$PSOLHEIGHT
 40
4.0
  9
$LOFTANG1
 40
1.570796326794896
  9
$LOFTANG2
 40
1.570796326794896
  9
$LOFTMAG1
 40
0.0
  9
$LOFTMAG2
 40
0.0
  9
$LOFTPARAM
 70
     7
  9
$LOFTNORMALS
280
     1
  9
$LATITUDE
 40
37.795
  9
$LONGITUDE
 40
-122.394
  9
$NORTHDIRECTION
 40
0.0
  9
$TIMEZONE
 70
 -8000
  9
$LIGHTGLYPHDISPLAY
280
     1
  9
$TILEMODELIGHTSYNCH
280
     1
  9
$CMATERIAL
347
A37
  9
$SOLIDHIST
280
     1
  9
$SHOWHIST
280
     1
  9
$DWFFRAME
280
     2
  9
$DGNFRAME
280
     0
  9
$REALWORLDSCALE
290
     1
  9
$INTERFERECOLOR
 62
     1
  9
$INTERFEREOBJVS
345
A59
  9
$INTERFEREVPVS
346
CBF
  9
$CSHADOW
280
     0
  9
$SHADOWPLANELOCATION
 40
0.0
  0
ENDSEC
  0
SECTION
  2
CLASSES
  0
CLASS
  1
DICTIONARYVAR
  2
AcDbDictionaryVar
  3
ObjectDBX Classes
 90
        0
 91
       12
280
     0
281
     0
  0
CLASS
  1
ACMESTATEMGR
  2
AcMeStateMgr
  3
AcMeServices
 90
     1024
 91
        1
280
     0
281
     0
  0
CLASS
  1
ACMESCOPE
  2
AcMeScope
  3
AcMeServices
 90
     1024
 91
        1
280
     0
281
     0
  0
CLASS
  1
ACMECOMMANDHISTORY
  2
AcMeCommandHistory
  3
AcMeServices
 90
     1024
 91
        1
280
     0
281
     0
  0
CLASS
  1
ACRFINSADJUSTERMGR
  2
AcRfInsAdjusterMgr
  3
AcMeServices
 90
     1024
 91
        1
280
     0
281
     0
  0
CLASS
  1
ACMEDRAWINGMAN
  2
AcMeDrawingMan
  3
AcMeServices
 90
     1024
 91
        0
280
     0
281
     0
  0
CLASS
  1
AMATTR
  2
AcMeAttribute
  3
AcMeServices
 90
     1024
 91
        0
280
     0
281
     0
  0
CLASS
  1
ACMEBOMCOLUMN
  2
AcMeBOMColumn
  3
AcMeServices
 90
     1024
 91
        0
280
     0
281
     0
  0
CLASS
  1
ACMEBOMCONF
  2
AcMeBOMConf
  3
AcMeServices
 90
     1024
 91
        0
280
     0
281
     0
  0
CLASS
  1
ACMEBOMTABLE
  2
AcMeBOMTable
  3
AcMeServices
 90
     1024
 91
        0
280
     0
281
     0
  0
CLASS
  1
ACMEBOMENTRY
  2
AcMeBOMEntry
  3
AcMeServices
 90
     1024
 91
        0
280
     0
281
     0
  0
CLASS
  1
ACMEVIEW
  2
AcMeView
  3
AcMeServices
 90
     1024
 91
        0
280
     0
281
     0
  0
CLASS
  1
ACGREFMASTER
  2
AcGrefMaster
  3
AcAttribServices
 90
     1024
 91
        1
280
     0
281
     0
  0
CLASS
  1
AMIMASTER
  2
AmiMaster
  3
AmiServices
 90
     1024
 91
        1
280
     0
281
     0
  0
CLASS
  1
ACASGREFMASTER
  2
AcAsGrefMaster
  3
AutoSurfResolverServices
 90
     1024
 91
        2
280
     0
281
     0
  0
CLASS
  1
ADAPPL
  2
AcAdAppl
  3
DesignerAssemblies
 90
     1024
 91
        0
280
     0
281
     0
  0
CLASS
  1
DEPMGR
  2
AcAdDepMgr
  3
DesignerAssemblies
 90
     1024
 91
        0
280
     0
281
     0
  0
CLASS
  1
PARAMMGR
  2
AcAdParamMgr
  3
DesignerAssemblies
 90
     1024
 91
        0
280
     0
281
     0
  0
CLASS
  1
PARAMSCOPE
  2
AcAdParamScope
  3
DesignerAssemblies
 90
     1024
 91
        0
280
     0
281
     0
  0
CLASS
  1
ACIMSYSVARMAN
  2
AcImSysVarManager
  3
AcMeServices
 90
     1024
 91
        3
280
     0
281
     0
  0
CLASS
  1
ACIMINTSYSVAR
  2
AcImIntSysVar
  3
AcMeServices
 90
     1024
 91
        2
280
     0
281
     0
  0
CLASS
  1
ACIMREALSYSVAR
  2
AcImRealSysVar
  3
AcMeServices
 90
     1024
 91
        0
280
     0
281
     0
  0
CLASS
  1
ACIMSTRSYSVAR
  2
AcImStrSysVar
  3
AcMeServices
 90
     1024
 91
        5
280
     0
281
     0
  0
CLASS
  1
NAMEDAPPL
  2
AcAdNamedAppl
  3
DesignerAssemblies
 90
     1024
 91
        0
280
     0
281
     0
  0
CLASS
  1
ADHNTMPLT
  2
AdHoleNoteTemplateMgr
  3
DesignerServices
 90
     1024
 91
        0
280
     0
281
     0
  0
CLASS
  1
AM_HNTEMPLATE_MGR_NAME
  2
AdHoleNoteTemplateMgrName
  3
DesignerServices
 90
     1024
 91
        0
280
     0
281
     0
  0
CLASS
  1
ACADGREFMODULE
  2
AcAdGrefModule
  3
AdGrefServices
 90
     1024
 91
        2
280
     0
281
     0
  0
CLASS
  1
AM_DRAWING_MGR
  2
AcDmDwgMgr
  3
AcMechDwgViewMgmt
 90
     1024
 91
        0
280
     0
281
     0
  0
CLASS
  1
AM_DWG_DOCUMENT
  2
AcDmDwgDocument
  3
AcMechDwgViewMgmt
 90
     1024
 91
        0
280
     0
281
     0
  0
CLASS
  1
AM_DWG_SHEET
  2
AcDmSheet
  3
AcMechDwgViewMgmt
 90
     1024
 91
        0
280
     0
281
     0
  0
CLASS
  1
AM_VIEWDIMPARMAP
  2
AcDmViewDimParMap
  3
AcMechDwgViewMgmt
 90
     1024
 91
        0
280
     0
281
     0
  0
CLASS
  1
AM_DWGMGR_NAME
  2
AcDmDwgMgrName
  3
AcMechDwgViewMgmt
 90
     1024
 91
        0
280
     0
281
     0
  0
CLASS
  1
ACAMPROJECT
  2
AcAmProject
  3
DesignerAssemblies
 90
     1024
 91
        1
280
     0
281
     0
  0
CLASS
  1
ACAMGRCOMPSET
  2
AcAmGrCompSet
  3
DesignerAssemblies
 90
        0
 91
        0
280
     0
281
     0
  0
CLASS
  1
ACAMGRCOMPDEFSET
  2
AcAmGrCompDefSet
  3
DesignerAssemblies
 90
     1024
 91
        1
280
     0
281
     0
  0
CLASS
  1
ACAMGRCOMPDEF
  2
AcAmGrCompDef
  3
DesignerAssemblies
 90
     1024
 91
        1
280
     0
281
     0
  0
CLASS
  1
ACCMCONTEXT
  2
AcCmContext
  3
DesignerAssemblies
 90
     1024
 91
        0
280
     0
281
     0
  0
CLASS
  1
ACAMCOMPDEF
  2
AcAmCompDef
  3
DesignerAssemblies
 90
     1024
 91
        1
280
     0
281
     0
  0
CLASS
  1
ACAMCOMPDEFMGR
  2
AcAmCompDefMgr
  3
DesignerAssemblies
 90
     1024
 91
        1
280
     0
281
     0
  0
CLASS
  1
AMCONTEXTMGR
  2
AcAmContextMgr
  3
DesignerAssemblies
 90
     1024
 91
        1
280
     0
281
     0
  0
CLASS
  1
ACAMCONTEXTMODELER
  2
AcAmContextModeler
  3
DesignerAssemblies
 90
     1024
 91
        1
280
     0
281
     0
  0
CLASS
  1
ACDMVIEWGEOM
  2
AcDmViewGeometry
  3
AcMechDwgViewMgmt
 90
     1024
 91
        0
280
     0
281
     1
  0
CLASS
  1
CBROWSERAPPOBJECT
  2
CBrowserAppObject
  3
McadcomServices
 90
     1024
 91
        2
280
     0
281
     0
  0
CLASS
  1
IM_STATIC_MAN
  2
AcImStaticVarManager
  3
AcMeServices
 90
     1024
 91
        0
280
     0
281
     0
  0
CLASS
  1
ASAPP
  2
AcAsAppObject
  3
AutoSurfServices
 90
     1024
 91
        2
280
     0
281
     0
  0
CLASS
  1
ACIMDBLSTATICVAR
  2
AcImDblStaticVar
  3
AcMeServices
 90
     1024
 91
        0
280
     0
281
     0
  0
CLASS
  1
ACIMSTRSTATICVAR
  2
AcImStrStaticVar
  3
AcMeServices
 90
     1024
 91
        0
280
     0
281
     0
  0
CLASS
  1
ACIMINTSTATICVAR
  2
AcImIntStaticVar
  3
AcMeServices
 90
     1024
 91
        0
280
     0
281
     0
  0
CLASS
  1
CATALOGSTATE
  2
AcAmCatalogState
  3
DesignerAssemblies
 90
     1024
 91
        0
280
     0
281
     0
  0
CLASS
  1
DM_PLACEHOLDER
  2
AcDmSelsetPlaceholder
  3
McadcomServices
 90
     1024
 91
        1
280
     0
281
     0
  0
CLASS
  1
LAYER_INDEX
  2
AcDbLayerIndex
  3
ObjectDBX Classes
 90
        0
 91
        1
280
     0
281
     0
  0
CLASS
  1
IDBUFFER
  2
AcDbIdBuffer
  3
ObjectDBX Classes
 90
        0
 91
        5
280
     0
281
     0
  0
CLASS
  1
ACMSTANDARDJIS
  2
AcmStandardJIS
  3
"Amdt_StdImp|Product Description: AutoCAD Mechanical|Company: Autodesk, Inc."
 90
     1024
 91
        0
280
     0
281
     0
  0
CLASS
  1
ACMSTANDARDANSI
  2
AcmStandardANSI
  3
"Amdt_StdImp|Product Description: AutoCAD Mechanical|Company: Autodesk, Inc."
 90
     1024
 91
        0
280
     0
281
     0
  0
CLASS
  1
ACMSTANDARDBSI
  2
AcmStandardBSI
  3
"Amdt_StdImp|Product Description: AutoCAD Mechanical|Company: Autodesk, Inc."
 90
     1024
 91
        0
280
     0
281
     0
  0
CLASS
  1
ACMSTANDARDDIN
  2
AcmStandardDIN
  3
"Amdt_StdImp|Product Description: AutoCAD Mechanical|Company: Autodesk, Inc."
 90
     1024
 91
        0
280
     0
281
     0
  0
CLASS
  1
ACMSTANDARDISO
  2
AcmStandardISO
  3
"Amdt_StdImp|Product Description: AutoCAD Mechanical|Company: Autodesk, Inc."
 90
     1024
 91
        1
280
     0
281
     0
  0
CLASS
  1
ACDBDICTIONARYWDFLT
  2
AcDbDictionaryWithDefault
  3
ObjectDBX Classes
 90
        0
 91
        1
280
     0
281
     0
  0
CLASS
  1
ACDBPLACEHOLDER
  2
AcDbPlaceHolder
  3
ObjectDBX Classes
 90
        0
 91
        1
280
     0
281
     0
  0
CLASS
  1
LAYOUT
  2
AcDbLayout
  3
ObjectDBX Classes
 90
        0
 91
        2
280
     0
281
     0
  0
CLASS
  1
ACME_DOCUMENT
  2
AcMeDbDoc
  3
AcMeServices
 90
     1024
 91
        1
280
     0
281
     0
  0
CLASS
  1
AMGSETTINGSOBJ
  2
AmgSettingsObj
  3
"AcadM|Product Description: AutoCAD Mechanical|Company: Autodesk, Inc."
 90
     1024
 91
        2
280
     0
281
     0
  0
CLASS
  1
AMGOBJPROPCFG
  2
AmgObjPropCfg
  3
"AmgLay|Product Description: AutoCAD Mechanical|Company: Autodesk, Inc."
 90
     1024
 91
        1
280
     0
281
     0
  0
CLASS
  1
ACDBENTITYCACHE
  2
AcMeEntityCache
  3
AcMeServices
 90
     1024
 91
        1
280
     0
281
     0
  0
CLASS
  1
GSMANAGER
  2
AcMeGSManager
  3
AcMeServices
 90
     1024
 91
        0
280
     0
281
     0
  0
CLASS
  1
AMDTINTERNALREACTOR
  2
AmdtInternalReactor
  3
AcMeServices
 90
     1024
 91
        0
280
     0
281
     0
  0
CLASS
  1
ACME_DATABASE
  2
AcMeDbDatabase
  3
AcMeServices
 90
     1024
 91
        3
280
     0
281
     0
  0
CLASS
  1
ACGREFACADMASTER
  2
AcGrefacadMaster
  3
AcGrefServices
 90
     1024
 91
        1
280
     0
281
     0
  0
CLASS
  1
AMDTMENUSTATEMGR
  2
AmdtMenuStateMgr
  3
McadcomServices
 90
     1024
 91
        1
280
     0
281
     0
  0
CLASS
  1
AMDTMCOMMENUSTATE
  2
AmdtMcomMenuState
  3
McadcomServices
 90
     1024
 91
        1
280
     0
281
     0
  0
CLASS
  1
MAPIADMODULE
  2
MApiAdModule
  3
MApiAdServices
 90
     1024
 91
        2
280
     0
281
     0
  0
CLASS
  1
AMDTDMMENUSTATE
  2
AmdtDmMenuState
  3
AcMechDwgViewMgmt
 90
     1024
 91
        0
280
     0
281
     0
  0
CLASS
  1
AMDTADMENUSTATE
  2
AmdtAdMenuState
  3
DesignerServices
 90
     1024
 91
        0
280
     0
281
     0
  0
CLASS
  1
AMDTAMMENUSTATE
  2
AmdtAmMenuState
  3
DesignerAssemblies
 90
     1024
 91
        1
280
     0
281
     0
  0
CLASS
  1
ACMDATADICTIONARY
  2
AcmDataDictionary
  3
"AcmSymBB|Product Description: AutoCAD Mechanical|Company: Autodesk, Inc."
 90
     1024
 91
        1
280
     0
281
     0
  0
CLASS
  1
ACMDATAENTRYBLOCK
  2
AcmDataEntryBlock
  3
AcmSymBB|Product Description: AutoCAD Mechanical|Company: Autodesk, Inc.
 90
     1024
 91
        0
280
     0
281
     0
  0
CLASS
  1
ACMSURFSTANDARDJIS
  2
AcmSurfTextStdJIS
  3
"Amdt_StdImp|Product Description: AutoCAD Mechanical|Company: Autodesk, Inc."
 90
     1024
 91
        0
280
     0
281
     0
  0
CLASS
  1
ACMFCFSTANDARDJIS
  2
AcmFCFStdJIS
  3
"Amdt_StdImp|Product Description: AutoCAD Mechanical|Company: Autodesk, Inc."
 90
     1024
 91
        0
280
     0
281
     0
  0
CLASS
  1
ACMWELDSTANDARDJIS
  2
AcmWeldingStdJIS
  3
"Amdt_StdImp|Product Description: AutoCAD Mechanical|Company: Autodesk, Inc."
 90
     1024
 91
        0
280
     0
281
     0
  0
CLASS
  1
ACMIDSTANDARDJIS
  2
AcmIdStdJIS
  3
"Amdt_StdImp|Product Description: AutoCAD Mechanical|Company: Autodesk, Inc."
 90
     1024
 91
        0
280
     0
281
     0
  0
CLASS
  1
ACMDATUMSTANDARDJIS
  2
AcmDatumStdJIS
  3
"Amdt_StdImp|Product Description: AutoCAD Mechanical|Company: Autodesk, Inc."
 90
     1024
 91
        0
280
     0
281
     0
  0
CLASS
  1
ACMBOMSTANDARDJIS
  2
AcmBOMStdJIS
  3
"Amdt_StdImp|Product Description: AutoCAD Mechanical|Company: Autodesk, Inc."
 90
     1024
 91
        0
280
     0
281
     0
  0
CLASS
  1
ACMSURFSTANDARDANSI
  2
AcmSurfTextStdANSI
  3
"Amdt_StdImp|Product Description: AutoCAD Mechanical|Company: Autodesk, Inc."
 90
     1024
 91
        0
280
     0
281
     0
  0
CLASS
  1
ACMFCFSTANDARDANSI
  2
AcmFCFStdANSI
  3
"Amdt_StdImp|Product Description: AutoCAD Mechanical|Company: Autodesk, Inc."
 90
     1024
 91
        0
280
     0
281
     0
  0
CLASS
  1
ACMWELDSTANDARDANSI
  2
AcmWeldingStdANSI
  3
"Amdt_StdImp|Product Description: AutoCAD Mechanical|Company: Autodesk, Inc."
 90
     1024
 91
        0
280
     0
281
     0
  0
CLASS
  1
ACMIDSTANDARDANSI
  2
AcmIdStdANSI
  3
"Amdt_StdImp|Product Description: AutoCAD Mechanical|Company: Autodesk, Inc."
 90
     1024
 91
        0
280
     0
281
     0
  0
CLASS
  1
ACMDATUMSTANDARDANSI
  2
AcmDatumStdANSI
  3
"Amdt_StdImp|Product Description: AutoCAD Mechanical|Company: Autodesk, Inc."
 90
     1024
 91
        0
280
     0
281
     0
  0
CLASS
  1
ACMBOMSTANDARDANSI
  2
AcmBOMStdANSI
  3
"Amdt_StdImp|Product Description: AutoCAD Mechanical|Company: Autodesk, Inc."
 90
     1024
 91
        0
280
     0
281
     0
  0
CLASS
  1
ACMSURFSTANDARDBSI
  2
AcmSurfTextStdBSI
  3
"Amdt_StdImp|Product Description: AutoCAD Mechanical|Company: Autodesk, Inc."
 90
     1024
 91
        0
280
     0
281
     0
  0
CLASS
  1
ACMFCFSTANDARDBSI
  2
AcmFCFStdBSI
  3
"Amdt_StdImp|Product Description: AutoCAD Mechanical|Company: Autodesk, Inc."
 90
     1024
 91
        0
280
     0
281
     0
  0
CLASS
  1
ACMWELDSTANDARDBSI
  2
AcmWeldingStdBSI
  3
"Amdt_StdImp|Product Description: AutoCAD Mechanical|Company: Autodesk, Inc."
 90
     1024
 91
        0
280
     0
281
     0
  0
CLASS
  1
ACMIDSTANDARDBSI
  2
AcmIdStdBSI
  3
"Amdt_StdImp|Product Description: AutoCAD Mechanical|Company: Autodesk, Inc."
 90
     1024
 91
        0
280
     0
281
     0
  0
CLASS
  1
ACMDATUMSTANDARDBSI
  2
AcmDatumStdBSI
  3
"Amdt_StdImp|Product Description: AutoCAD Mechanical|Company: Autodesk, Inc."
 90
     1024
 91
        0
280
     0
281
     0
  0
CLASS
  1
ACMBOMSTANDARDBSI
  2
AcmBOMStdBSI
  3
"Amdt_StdImp|Product Description: AutoCAD Mechanical|Company: Autodesk, Inc."
 90
     1024
 91
        0
280
     0
281
     0
  0
CLASS
  1
AMDTEDGESTANDARDDIN
  2
AmdtEdgeStdDIN
  3
"Amdt_StdImp|Product Description: AutoCAD Mechanical|Company: Autodesk, Inc."
 90
     1024
 91
        0
280
     0
281
     0
  0
CLASS
  1
ACMSURFSTANDARDDIN
  2
AcmSurfTextStdDIN
  3
"Amdt_StdImp|Product Description: AutoCAD Mechanical|Company: Autodesk, Inc."
 90
     1024
 91
        0
280
     0
281
     0
  0
CLASS
  1
ACMFCFSTANDARDDIN
  2
AcmFCFStdDIN
  3
"Amdt_StdImp|Product Description: AutoCAD Mechanical|Company: Autodesk, Inc."
 90
     1024
 91
        0
280
     0
281
     0
  0
CLASS
  1
ACMWELDSTANDARDDIN
  2
AcmWeldingStdDIN
  3
"Amdt_StdImp|Product Description: AutoCAD Mechanical|Company: Autodesk, Inc."
 90
     1024
 91
        0
280
     0
281
     0
  0
CLASS
  1
ACMIDSTANDARDDIN
  2
AcmIdStdDIN
  3
"Amdt_StdImp|Product Description: AutoCAD Mechanical|Company: Autodesk, Inc."
 90
     1024
 91
        0
280
     0
281
     0
  0
CLASS
  1
ACMDATUMSTANDARDDIN
  2
AcmDatumStdDIN
  3
"Amdt_StdImp|Product Description: AutoCAD Mechanical|Company: Autodesk, Inc."
 90
     1024
 91
        0
280
     0
281
     0
  0
CLASS
  1
ACMBOMSTANDARDDIN
  2
AcmBOMStdDIN
  3
"Amdt_StdImp|Product Description: AutoCAD Mechanical|Company: Autodesk, Inc."
 90
     1024
 91
        0
280
     0
281
     0
  0
CLASS
  1
ACMSURFSTANDARDISO
  2
AcmSurfTextStdISO
  3
"Amdt_StdImp|Product Description: AutoCAD Mechanical|Company: Autodesk, Inc."
 90
     1024
 91
        0
280
     0
281
     0
  0
CLASS
  1
ACMFCFSTANDARDISO
  2
AcmFCFStdISO
  3
"Amdt_StdImp|Product Description: AutoCAD Mechanical|Company: Autodesk, Inc."
 90
     1024
 91
        0
280
     0
281
     0
  0
CLASS
  1
ACMWELDSTANDARDISO
  2
AcmWeldingStdISO
  3
"Amdt_StdImp|Product Description: AutoCAD Mechanical|Company: Autodesk, Inc."
 90
     1024
 91
        1
280
     0
281
     0
  0
CLASS
  1
ACMIDSTANDARDISO
  2
AcmIdStdISO
  3
"Amdt_StdImp|Product Description: AutoCAD Mechanical|Company: Autodesk, Inc."
 90
     1024
 91
        0
280
     0
281
     0
  0
CLASS
  1
ACMDATUMSTANDARDISO
  2
AcmDatumStdISO
  3
"Amdt_StdImp|Product Description: AutoCAD Mechanical|Company: Autodesk, Inc."
 90
     1024
 91
        1
280
     0
281
     0
  0
CLASS
  1
ACMBOMSTANDARDISO
  2
AcmBOMStdISO
  3
"Amdt_StdImp|Product Description: AutoCAD Mechanical|Company: Autodesk, Inc."
 90
     1024
 91
        1
280
     0
281
     0
  0
CLASS
  1
AMDTBROWSERDBTAB
  2
AmdtBrowserDbTab
  3
McadcomServices
 90
     1024
 91
        1
280
     0
281
     0
  0
CLASS
  1
ACAMGFILTERDAT
  2
AcAmgFilterDat
  3
"AcadM|Product Description: AutoCAD Mechanical|Company: Autodesk, Inc."
 90
     1024
 91
        0
280
     0
281
     0
  0
CLASS
  1
MAPIAMMOUDLE
  2
MApiAmModule
  3
MApiAmServices
 90
     1024
 91
        1
280
     0
281
     0
  0
CLASS
  1
AMDTMAPISURFMOUDULE
  2
AmdtMApiSurfModule
  3
MApiSurfServices
 90
     1024
 91
        2
280
     0
281
     0
  0
CLASS
  1
ACAMGLAYSTD
  2
AcAmgLayStd
  3
"AmgLay|Product Description: AutoCAD Mechanical|Company: Autodesk, Inc."
 90
     1024
 91
        1
280
     0
281
     0
  0
CLASS
  1
ACAMGDIMSTD
  2
AcAmgDimStd
  3
"AmgDim|Product Description: AutoCAD Mechanical|Company: Autodesk, Inc."
 90
     1024
 91
        1
280
     0
281
     0
  0
CLASS
  1
ACAMGTITLESTD
  2
AcAmgTitleStd
  3
"AmgTitle|Product Description: AutoCAD Mechanical|Company: Autodesk, Inc."
 90
     1024
 91
        1
280
     0
281
     0
  0
CLASS
  1
ACMDETAILSTANDARDJIS
  2
AmdtDetailSymStdJIS
  3
"Amdt_StdImp|Product Description: AutoCAD Mechanical|Company: Autodesk, Inc."
 90
     1024
 91
        0
280
     0
281
     0
  0
CLASS
  1
ACMSECTIONSTANDARDJIS
  2
AmdtSectionSymStdJIS
  3
"Amdt_StdImp|Product Description: AutoCAD Mechanical|Company: Autodesk, Inc."
 90
     1024
 91
        0
280
     0
281
     0
  0
CLASS
  1
ACMCENTERLINESTANDARDJIS
  2
AmdtCenterLineStdJIS
  3
"Amdt_StdImp|Product Description: AutoCAD Mechanical|Company: Autodesk, Inc."
 90
     1024
 91
        0
280
     0
281
     0
  0
CLASS
  1
ACMTHREADLINESTANDARDJIS
  2
AmdtThreadLineStdJIS
  3
"Amdt_StdImp|Product Description: AutoCAD Mechanical|Company: Autodesk, Inc."
 90
     1024
 91
        0
280
     0
281
     0
  0
CLASS
  1
ACMDETAILSTANDARDANSI
  2
AmdtDetailSymStdANSI
  3
"Amdt_StdImp|Product Description: AutoCAD Mechanical|Company: Autodesk, Inc."
 90
     1024
 91
        0
280
     0
281
     0
  0
CLASS
  1
ACMSECTIONSTANDARDANSI
  2
AmdtSectionSymStdANSI
  3
"Amdt_StdImp|Product Description: AutoCAD Mechanical|Company: Autodesk, Inc."
 90
     1024
 91
        0
280
     0
281
     0
  0
CLASS
  1
ACMCENTERLINESTANDARDANSI
  2
AmdtCenterLineStdANSI
  3
"Amdt_StdImp|Product Description: AutoCAD Mechanical|Company: Autodesk, Inc."
 90
     1024
 91
        0
280
     0
281
     0
  0
CLASS
  1
ACMTHREADLINESTANDARDANSI
  2
AmdtThreadLineStdANSI
  3
"Amdt_StdImp|Product Description: AutoCAD Mechanical|Company: Autodesk, Inc."
 90
     1024
 91
        0
280
     0
281
     0
  0
CLASS
  1
ACMDETAILSTANDARDBSI
  2
AmdtDetailSymStdBSI
  3
"Amdt_StdImp|Product Description: AutoCAD Mechanical|Company: Autodesk, Inc."
 90
     1024
 91
        0
280
     0
281
     0
  0
CLASS
  1
ACMSECTIONSTANDARDBSI
  2
AmdtSectionSymStdBSI
  3
"Amdt_StdImp|Product Description: AutoCAD Mechanical|Company: Autodesk, Inc."
 90
     1024
 91
        0
280
     0
281
     0
  0
CLASS
  1
ACMCENTERLINESTANDARDBSI
  2
AmdtCenterLineStdBSI
  3
"Amdt_StdImp|Product Description: AutoCAD Mechanical|Company: Autodesk, Inc."
 90
     1024
 91
        0
280
     0
281
     0
  0
CLASS
  1
ACMTHREADLINESTANDARDBSI
  2
AmdtThreadLineStdBSI
  3
"Amdt_StdImp|Product Description: AutoCAD Mechanical|Company: Autodesk, Inc."
 90
     1024
 91
        0
280
     0
281
     0
  0
CLASS
  1
ACMDETAILSTANDARDDIN
  2
AmdtDetailSymStdDIN
  3
"Amdt_StdImp|Product Description: AutoCAD Mechanical|Company: Autodesk, Inc."
 90
     1024
 91
        0
280
     0
281
     0
  0
CLASS
  1
ACMSECTIONSTANDARDDIN
  2
AmdtSectionSymStdDIN
  3
"Amdt_StdImp|Product Description: AutoCAD Mechanical|Company: Autodesk, Inc."
 90
     1024
 91
        0
280
     0
281
     0
  0
CLASS
  1
ACMCENTERLINESTANDARDDIN
  2
AmdtCenterLineStdDIN
  3
"Amdt_StdImp|Product Description: AutoCAD Mechanical|Company: Autodesk, Inc."
 90
     1024
 91
        0
280
     0
281
     0
  0
CLASS
  1
ACMTHREADLINESTANDARDDIN
  2
AmdtThreadLineStdDIN
  3
"Amdt_StdImp|Product Description: AutoCAD Mechanical|Company: Autodesk, Inc."
 90
     1024
 91
        0
280
     0
281
     0
  0
CLASS
  1
AMDTEDGESTANDARDISO
  2
AmdtEdgeStdISO
  3
"Amdt_StdImp|Product Description: AutoCAD Mechanical|Company: Autodesk, Inc."
 90
     1024
 91
        0
280
     0
281
     0
  0
CLASS
  1
ACMDETAILSTANDARDISO
  2
AmdtDetailSymStdISO
  3
"Amdt_StdImp|Product Description: AutoCAD Mechanical|Company: Autodesk, Inc."
 90
     1024
 91
        1
280
     0
281
     0
  0
CLASS
  1
ACMSECTIONSTANDARDISO
  2
AmdtSectionSymStdISO
  3
"Amdt_StdImp|Product Description: AutoCAD Mechanical|Company: Autodesk, Inc."
 90
     1024
 91
        0
280
     0
281
     0
  0
CLASS
  1
ACMCENTERLINESTANDARDISO
  2
AmdtCenterLineStdISO
  3
"Amdt_StdImp|Product Description: AutoCAD Mechanical|Company: Autodesk, Inc."
 90
     1024
 91
        1
280
     0
281
     0
  0
CLASS
  1
ACMTHREADLINESTANDARDISO
  2
AmdtThreadLineStdISO
  3
"Amdt_StdImp|Product Description: AutoCAD Mechanical|Company: Autodesk, Inc."
 90
     1024
 91
        1
280
     0
281
     0
  0
CLASS
  1
ACMNOTESTANDARDISO
  2
AmdtNoteStdISO
  3
"Amdt_StdImp|Product Description: AutoCAD Mechanical|Company: Autodesk, Inc."
 90
     1024
 91
        1
280
     0
281
     0
  0
CLASS
  1
ACAMGHOLECHARTSTDISO
  2
AcAmgHoleChartStdISO
  3
AmgDim|Product Description: AutoCAD Mechanical|Company: Autodesk, Inc.
 90
     1024
 91
        1
280
     0
281
     0
  0
CLASS
  1
ACMNOTESTANDARDANSI
  2
AmdtNoteStdANSI
  3
"Amdt_StdImp|Product Description: AutoCAD Mechanical|Company: Autodesk, Inc."
 90
     1024
 91
        0
280
     0
281
     0
  0
CLASS
  1
AMDTNOTETEMPLATEDB
  2
AmdtNoteTemplateDB
  3
AcmSymBB|Product Description: AutoCAD Mechanical|Company: Autodesk, Inc.
 90
     1024
 91
        7
280
     0
281
     0
  0
CLASS
  1
ACAMGHOLECHARTSTDANSI
  2
AcAmgHoleChartStdANSI
  3
AmgDim|Product Description: AutoCAD Mechanical|Company: Autodesk, Inc.
 90
     1024
 91
        0
280
     0
281
     0
  0
CLASS
  1
TABLESTYLE
  2
AcDbTableStyle
  3
ObjectDBX Classes
 90
     4095
 91
        1
280
     0
281
     0
  0
CLASS
  1
ACAD_TABLE
  2
AcDbTable
  3
ObjectDBX Classes
 90
     1025
 91
        0
280
     0
281
     1
  0
CLASS
  1
MATERIAL
  2
AcDbMaterial
  3
ObjectDBX Classes
 90
     1153
 91
        3
280
     0
281
     0
  0
CLASS
  1
VISUALSTYLE
  2
AcDbVisualStyle
  3
ObjectDBX Classes
 90
     4095
 91
       26
280
     0
281
     0
  0
CLASS
  1
SCALE
  2
AcDbScale
  3
ObjectDBX Classes
 90
     1153
 91
       17
280
     0
281
     0
  0
CLASS
  1
MLEADERSTYLE
  2
AcDbMLeaderStyle
  3
ACDB_MLEADERSTYLE_CLASS
 90
     4095
 91
        1
280
     0
281
     0
  0
CLASS
  1
ACRFATTGENMGR
  2
AcRfAttGeneralMgr
  3
AcAttribServices
 90
     1024
 91
        0
280
     0
281
     0
  0
CLASS
  1
ACRFOBJATTMGR
  2
AcRfObjAttGroupMgr
  3
AcAttribServices
 90
     1024
 91
        0
280
     0
281
     0
  0
CLASS
  1
ACRFMCADAPIATTHOLDER
  2
AcRfMCADAPIAttHolder
  3
AcAttribServices
 90
     1024
 91
        0
280
     0
281
     0
  0
CLASS
  1
AMDTSYSATTR
  2
AmdtSystemAttribute
  3
AcAttribServices
 90
     1024
 91
        0
280
     0
281
     0
  0
CLASS
  1
ACMTAPERSTANDARDISO
  2
AcmTaperStdISO
  3
"Amdt_StdImp|Product Description: AutoCAD Mechanical|Company: Autodesk, Inc."
 90
     1024
 91
        1
280
     0
281
     0
  0
CLASS
  1
ACMANOOTATIONVIEWSTANDARDISO
  2
AmdtAnViewStdISO
  3
"Amdt_StdImp|Product Description: AutoCAD Mechanical|Company: Autodesk, Inc."
 90
     1024
 91
        1
280
     0
281
     0
  0
CLASS
  1
ACMTAPERSTANDARDANSI
  2
AcmTaperStdANSI
  3
"Amdt_StdImp|Product Description: AutoCAD Mechanical|Company: Autodesk, Inc."
 90
     1024
 91
        0
280
     0
281
     0
  0
CLASS
  1
ACMANOOTATIONVIEWSTANDARDANSI
  2
AmdtAnViewStdANSI
  3
"Amdt_StdImp|Product Description: AutoCAD Mechanical|Company: Autodesk, Inc."
 90
     1024
 91
        0
280
     0
281
     0
  0
CLASS
  1
CELLSTYLEMAP
  2
AcDbCellStyleMap
  3
ObjectDBX Classes
 90
     1152
 91
        2
280
     0
281
     0
  0
CLASS
  1
CAMSSTRUCTBTNSTATE
  2
StructBtnState
  3
DesignerAssemblies
 90
     1024
 91
        0
280
     0
281
     0
  0
CLASS
  1
ACDBSECTIONVIEWSTYLE
  2
AcDbSectionViewStyle
  3
ObjectDBX Classes
 90
     1025
 91
        2
280
     0
281
     0
  0
CLASS
  1
ACDBDETAILVIEWSTYLE
  2
AcDbDetailViewStyle
  3
ObjectDBX Classes
 90
     1025
 91
        2
280
     0
281
     0
  0
CLASS
  1
FIELD
  2
AcDbField
  3
ObjectDBX Classes
 90
     1152
 91
        3
280
     0
281
     0
  0
CLASS
  1
SORTENTSTABLE
  2
AcDbSortentsTable
  3
ObjectDBX Classes
 90
        0
 91
        0
280
     0
281
     0
  0
CLASS
  1
FIELDLIST
  2
AcDbFieldList
  3
ObjectDBX Classes
 90
     1152
 91
        1
280
     0
281
     0
  0
CLASS
  1
ACMSECTIONSTANDARDCUSTOM
  2
AmdtSectionSymStdCustom
  3
"Amdt_StdImp|Product Description: AutoCAD Mechanical|Company: Autodesk, Inc."
 90
     1024
 91
        0
280
     0
281
     0
  0
CLASS
  1
ACMDETAILTANDARDCUSTOM
  2
AmdtDetailSymStdCustom
  3
"Amdt_StdImp|Product Description: AutoCAD Mechanical|Company: Autodesk, Inc."
 90
     1024
 91
        0
280
     0
281
     0
  0
CLASS
  1
EXACXREFPANELOBJECT
  2
ExAcXREFPanelObject
  3
EXAC_ESW
 90
     1025
 91
        0
280
     0
281
     0
  0
CLASS
  1
NPOCOLLECTION
  2
AcDbImpNonPersistentObjectsCollection
  3
ObjectDBX Classes
 90
     1153
 91
        0
280
     0
281
     0
  0
CLASS
  1
ACAD_EVALUATION_GRAPH
  2
AcDbEvalGraph
  3
ObjectDBX Classes
 90
     1153
 91
        3
280
     0
281
     0
  0
CLASS
  1
ACAECUSTOBJ
  2
AcAeEditorObj
  3
AcAeEditorObj
 90
     1024
 91
        1
280
     0
281
     0
  0
CLASS
  1
ACDB_DYNAMICBLOCKPURGEPREVENTER_VERSION
  2
AcDbDynamicBlockPurgePreventer
  3
ObjectDBX Classes
 90
     1153
 91
        3
280
     0
281
     0
  0
CLASS
  1
PLOTSETTINGS
  2
AcDbPlotSettings
  3
ObjectDBX Classes
 90
        0
 91
        1
280
     0
281
     0
  0
CLASS
  1
DIMASSOC
  2
AcDbDimAssoc
  3
"AcDbDimAssoc|Product Desc:     AcDim ARX App For Dimension|Company:          Autodesk, Inc.|WEB Address:      www.autodesk.com"
 90
        0
 91
       12
280
     0
281
     0
  0
CLASS
  1
AMDTEDGESTANDARDISO13715
  2
AmdtEdgeStdISO13715
  3
"Amdt_StdImp|Product Description: AutoCAD Mechanical|Company: Autodesk, Inc."
 90
     1024
 91
        1
280
     0
281
     0
  0
CLASS
  1
ACMSURFSTANDARDISO2002
  2
AcmSurfTextStdISO2002
  3
"Amdt_StdImp|Product Description: AutoCAD Mechanical|Company: Autodesk, Inc."
 90
     1024
 91
        1
280
     0
281
     0
  0
CLASS
  1
ACMFCFSTANDARDISO2004
  2
AcmFCFStdISO2004
  3
"Amdt_StdImp|Product Description: AutoCAD Mechanical|Company: Autodesk, Inc."
 90
     1024
 91
        1
280
     0
281
     0
  0
CLASS
  1
ACMIDSTANDARDISO2004
  2
AcmIdStdISO2004
  3
"Amdt_StdImp|Product Description: AutoCAD Mechanical|Company: Autodesk, Inc."
 90
     1024
 91
        1
280
     0
281
     0
  0
CLASS
  1
ACMSECTIONSTANDARDISO2001
  2
AmdtSectionSymStdISO2001
  3
"Amdt_StdImp|Product Description: AutoCAD Mechanical|Company: Autodesk, Inc."
 90
     1024
 91
        1
280
     0
281
     0
  0
ENDSEC
  0
SECTION
  2
TABLES
  0
TABLE
  2
VPORT
  5
8
330
0
100
AcDbSymbolTable
 70
     1
  0
VPORT
  5
A35
330
8
100
AcDbSymbolTableRecord
100
AcDbViewportTableRecord
  2
*Active
 70
     0
 10
0.0
 20
0.0
 11
1.0
 21
1.0
 12
91.81038238724326
 22
135.8558342849554
 13
0.0
 23
0.0
 14
2.5
 24
2.5
 15
10.0
 25
10.0
 16
0.0
 26
0.0
 36
1.0
 17
0.0
 27
0.0
 37
0.0
 40
273.4841604225707
 41
1.661392405063291
 42
50.0
 43
0.0
 44
0.0
 50
0.0
 51
0.0
 71
     0
 72
   100
 73
     1
 74
     1
 75
     0
 76
     0
 77
     0
 78
     0
281
     0
 65
     0
110
0.0
120
0.0
130
0.0
111
1.0
121
0.0
131
0.0
112
0.0
122
1.0
132
0.0
 79
     0
146
0.0
348
A55
 60
     3
 61
     5
292
     1
282
     1
141
0.0
142
0.0
 63
   250
421
  3355443
1001
ACAD_NAV_VCDISPLAY
1070
     3
  0
ENDTAB
  0
TABLE
  2
LTYPE
  5
5
330
0
100
AcDbSymbolTable
 70
    14
  0
LTYPE
  5
14
330
5
100
AcDbSymbolTableRecord
100
AcDbLinetypeTableRecord
  2
BYBLOCK
 70
     0
  3

 72
    65
 73
     0
 40
0.0
  0
LTYPE
  5
15
330
5
100
AcDbSymbolTableRecord
100
AcDbLinetypeTableRecord
  2
BYLAYER
 70
     0
  3

 72
    65
 73
     0
 40
0.0
  0
LTYPE
  5
16
330
5
100
AcDbSymbolTableRecord
100
AcDbLinetypeTableRecord
  2
CONTINUOUS
 70
     0
  3
Solid line
 72
    65
 73
     0
 40
0.0
  0
LTYPE
  5
15B
330
5
100
AcDbSymbolTableRecord
100
AcDbLinetypeTableRecord
  2
ACISOWELD
 70
     0
  3
_ _ _ _ _
 72
    65
 73
     2
 40
2.0
 49
2.0
 74
     0
 49
-1.0
 74
     0
  0
LTYPE
  5
15C
330
5
100
AcDbSymbolTableRecord
100
AcDbLinetypeTableRecord
  2
ACISOTGB
 70
     0
  3
__ . . __ . .
 72
    65
 73
     6
 40
9.0
 49
4.0
 74
     0
 49
-1.0
 74
     0
 49
1.0
 74
     0
 49
-1.0
 74
     0
 49
1.0
 74
     0
 49
-1.0
 74
     0
  0
LTYPE
  5
15D
330
5
100
AcDbSymbolTableRecord
100
AcDbLinetypeTableRecord
  2
ACISOTGL
 70
     0
  3
_ _ _ _ _
 72
    65
 73
     2
 40
3.0
 49
2.0
 74
     0
 49
-1.0
 74
     0
  0
LTYPE
  5
175
330
5
100
AcDbSymbolTableRecord
100
AcDbLinetypeTableRecord
  2
AM_ISO02W050
 70
     0
  3
__ __ __ __ __ __ __ __ __ __ __ __ __ __ __
 72
    65
 73
     2
 40
7.5
 49
6.0
 74
     0
 49
-1.5
 74
     0
  0
LTYPE
  5
176
330
5
100
AcDbSymbolTableRecord
100
AcDbLinetypeTableRecord
  2
AM_ISO08W050
 70
     0
  3
____ . ____ . ____ . ____ . ____ . ____ . ____
 72
    65
 73
     4
 40
18.0
 49
12.0
 74
     0
 49
-1.5
 74
     0
 49
3.0
 74
     0
 49
-1.5
 74
     0
  0
LTYPE
  5
177
330
5
100
AcDbSymbolTableRecord
100
AcDbLinetypeTableRecord
  2
AM_ISO09W050
 70
     0
  3
_____ . . _____ . . _____ . . ____ .. ____
 72
    65
 73
     6
 40
22.5
 49
12.0
 74
     0
 49
-1.5
 74
     0
 49
3.0
 74
     0
 49
-1.5
 74
     0
 49
3.0
 74
     0
 49
-1.5
 74
     0
  0
LTYPE
  5
178
330
5
100
AcDbSymbolTableRecord
100
AcDbLinetypeTableRecord
  2
AM_ISO02W050x2
 70
     0
  3
 _ _ _ _ _ _ _ _ _ _ _ _
 72
    65
 73
     2
 40
3.75
 49
3.0
 74
     0
 49
-0.75
 74
     0
  0
LTYPE
  5
179
330
5
100
AcDbSymbolTableRecord
100
AcDbLinetypeTableRecord
  2
AM_ISO08W050x2
 70
     0
  3
__ . __ . __ . __ . __ . __
 72
    65
 73
     4
 40
9.0
 49
6.0
 74
     0
 49
-0.75
 74
     0
 49
1.5
 74
     0
 49
-0.75
 74
     0
  0
LTYPE
  5
17C
330
5
100
AcDbSymbolTableRecord
100
AcDbLinetypeTableRecord
  2
Amzigzag
 70
     0
  3
/\/-/\/-/\/-/\/-/\/-/\/
 72
    65
 73
     2
 40
11.0001
 49
0.0001
 74
     4
 75
   135
340
17B
 46
0.04
 50
0.0
 44
0.0
 45
0.0
 49
-11.0
 74
     0
  0
LTYPE
  5
2ED
330
5
100
AcDbSymbolTableRecord
100
AcDbLinetypeTableRecord
  2
Amconstr
 70
     0
  3
_______________________
 72
    65
 73
     2
 40
9999.0
 49
9999.0
 74
     0
 49
0.0
 74
     0
  0
ENDTAB
  0
TABLE
  2
LAYER
  5
2
102
{ACAD_XDICTIONARY
360
592
102
}
330
0
100
AcDbSymbolTable
 70
     5
  0
LAYER
  5
F
102
{ACAD_XDICTIONARY
360
AB7
102
}
330
2
100
AcDbSymbolTableRecord
100
AcDbLayerTableRecord
  2
0
 70
     0
 62
     7
  6
CONTINUOUS
370
    -3
390
166
347
A47
348
0
  0
LAYER
  5
5CF
102
{ACAD_XDICTIONARY
360
AB9
102
}
330
2
100
AcDbSymbolTableRecord
100
AcDbLayerTableRecord
  2
AM_0
 70
     0
 62
     7
  6
CONTINUOUS
370
    50
390
166
347
A47
348
0
  0
LAYER
  5
318F
102
{ACAD_XDICTIONARY
360
3EC9
102
}
330
2
100
AcDbSymbolTableRecord
100
AcDbLayerTableRecord
  2
Visible Edges(ISO)
 70
     0
 62
     7
  6
CONTINUOUS
370
    35
390
166
347
A47
348
0
  0
LAYER
  5
3190
330
2
100
AcDbSymbolTableRecord
100
AcDbLayerTableRecord
  2
Defpoints
 70
     0
 62
     7
  6
CONTINUOUS
290
     0
370
    -3
390
166
347
A47
348
0
  0
LAYER
  5
3191
102
{ACAD_XDICTIONARY
360
3ECB
102
}
330
2
100
AcDbSymbolTableRecord
100
AcDbLayerTableRecord
  2
DIM
 70
     0
 62
     3
  6
CONTINUOUS
370
    25
390
166
347
A47
348
0
1001
AcAecLayerStandard
1000

1000

  0
ENDTAB
  0
TABLE
  2
STYLE
  5
3
330
0
100
AcDbSymbolTable
 70
     5
  0
STYLE
  5
10
330
3
100
AcDbSymbolTableRecord
100
AcDbTextStyleTableRecord
  2
STANDARD
 70
     0
 40
0.0
 41
1.0
 50
0.0
 71
     0
 42
3.5
  3
ISOCP.SHX
  4

  0
STYLE
  5
159
330
3
100
AcDbSymbolTableRecord
100
AcDbTextStyleTableRecord
  2
ACISOTS
 70
     0
 40
1.0
 41
1.0
 50
0.0
 71
     0
 42
2.5
  3
isocp.shx
  4

  0
STYLE
  5
15A
330
3
100
AcDbSymbolTableRecord
100
AcDbTextStyleTableRecord
  2
ACISOGDT
 70
     0
 40
0.0
 41
1.0
 50
0.0
 71
     0
 42
2.5
  3
amgdt.shx
  4

  0
STYLE
  5
17B
330
3
100
AcDbSymbolTableRecord
100
AcDbTextStyleTableRecord
  2

 70
     1
 40
0.0
 41
1.0
 50
0.0
 71
     0
 42
3.5
  3
ltypeshp.shx
  4

  0
STYLE
  5
D0A
330
3
100
AcDbSymbolTableRecord
100
AcDbTextStyleTableRecord
  2
ISOCP
 70
     0
 40
0.0
 41
1.0
 50
0.0
 71
     0
 42
3.5
  3
isocp
  4

  0
ENDTAB
  0
TABLE
  2
VIEW
  5
6
330
0
100
AcDbSymbolTable
 70
     9
  0
VIEW
  5
1C8
330
6
100
AcDbSymbolTableRecord
100
AcDbViewTableRecord
  2
AMDTVIEW1
 70
     0
 40
329.0721649484536
 10
210.0
 20
164.5360824742268
 41
420.0
 11
0.0
 21
0.0
 31
1.0
 12
0.0
 22
0.0
 32
0.0
 42
50.0
 43
0.0
 44
0.0
 50
0.0
 71
     0
281
     0
 72
     0
 73
     0
348
A55
  0
VIEW
  5
1C9
330
6
100
AcDbSymbolTableRecord
100
AcDbViewTableRecord
  2
AMDTVIEW2
 70
     0
 40
329.0721649484536
 10
210.0
 20
164.5360824742268
 41
420.0
 11
0.0
 21
0.0
 31
1.0
 12
0.0
 22
0.0
 32
0.0
 42
50.0
 43
0.0
 44
0.0
 50
0.0
 71
     0
281
     0
 72
     0
 73
     0
348
A55
  0
VIEW
  5
1CA
330
6
100
AcDbSymbolTableRecord
100
AcDbViewTableRecord
  2
AMDTVIEW3
 70
     0
 40
329.0721649484536
 10
210.0
 20
164.5360824742268
 41
420.0
 11
0.0
 21
0.0
 31
1.0
 12
0.0
 22
0.0
 32
0.0
 42
50.0
 43
0.0
 44
0.0
 50
0.0
 71
     0
281
     0
 72
     0
 73
     0
348
A55
  0
VIEW
  5
FA2
330
6
100
AcDbSymbolTableRecord
100
AcDbViewTableRecord
  2
AM_VIEW1
 70
     0
 40
148.5
 10
116.6562170706006
 20
222.75
 41
233.3124341412013
 11
0.0
 21
0.0
 31
1.0
 12
0.0
 22
0.0
 32
0.0
 42
50.0
 43
0.0
 44
0.0
 50
0.0
 71
     0
281
     0
 72
     0
 73
     0
  0
VIEW
  5
FA3
330
6
100
AcDbSymbolTableRecord
100
AcDbViewTableRecord
  2
AM_VIEW2
 70
     0
 40
148.5
 10
303.3437829293994
 20
222.75
 41
233.3124341412013
 11
0.0
 21
0.0
 31
1.0
 12
0.0
 22
0.0
 32
0.0
 42
50.0
 43
0.0
 44
0.0
 50
0.0
 71
     0
281
     0
 72
     0
 73
     0
  0
VIEW
  5
FA4
330
6
100
AcDbSymbolTableRecord
100
AcDbViewTableRecord
  2
AM_VIEW3
 70
     0
 40
148.5
 10
116.6562170706006
 20
74.25
 41
233.3124341412013
 11
0.0
 21
0.0
 31
1.0
 12
0.0
 22
0.0
 32
0.0
 42
50.0
 43
0.0
 44
0.0
 50
0.0
 71
     0
281
     0
 72
     0
 73
     0
  0
VIEW
  5
FA5
330
6
100
AcDbSymbolTableRecord
100
AcDbViewTableRecord
  2
AM_VIEW4
 70
     0
 40
148.5
 10
303.3437829293994
 20
74.25
 41
233.3124341412013
 11
0.0
 21
0.0
 31
1.0
 12
0.0
 22
0.0
 32
0.0
 42
50.0
 43
0.0
 44
0.0
 50
0.0
 71
     0
281
     0
 72
     0
 73
     0
  0
VIEW
  5
FA6
330
6
100
AcDbSymbolTableRecord
100
AcDbViewTableRecord
  2
AM_VIEW5
 70
     0
 40
148.5
 10
210.0
 20
148.5
 41
233.3124341412013
 11
0.0
 21
0.0
 31
1.0
 12
0.0
 22
0.0
 32
0.0
 42
50.0
 43
0.0
 44
0.0
 50
0.0
 71
     0
281
     0
 72
     0
 73
     0
  0
VIEW
  5
FA7
330
6
100
AcDbSymbolTableRecord
100
AcDbViewTableRecord
  2
AM_VIEW6
 70
     0
 40
296.99703
 10
210.0
 20
148.5
 41
466.6202020337196
 11
0.0
 21
0.0
 31
1.0
 12
0.0
 22
0.0
 32
0.0
 42
50.0
 43
0.0
 44
0.0
 50
0.0
 71
     0
281
     0
 72
     0
 73
     0
  0
ENDTAB
  0
TABLE
  2
UCS
  5
7
330
0
100
AcDbSymbolTable
 70
     0
  0
ENDTAB
  0
TABLE
  2
APPID
  5
9
330
0
100
AcDbSymbolTable
 70
    42
  0
APPID
  5
11
330
9
100
AcDbSymbolTableRecord
100
AcDbRegAppTableRecord
  2
ACAD
 70
     0
  0
APPID
  5
CD
330
9
100
AcDbSymbolTableRecord
100
AcDbRegAppTableRecord
  2
AD_DRAW
 70
     0
  0
APPID
  5
E7
330
9
100
AcDbSymbolTableRecord
100
AcDbRegAppTableRecord
  2
DESIGNERASSEMBLIES
 70
     0
  0
APPID
  5
EB
330
9
100
AcDbSymbolTableRecord
100
AcDbRegAppTableRecord
  2
MCAD_NO_VIS
 70
     0
  0
APPID
  5
122
330
9
100
AcDbSymbolTableRecord
100
AcDbRegAppTableRecord
  2
ASURF_PCURVE_APPNAME
 70
     0
  0
APPID
  5
17F
330
9
100
AcDbSymbolTableRecord
100
AcDbRegAppTableRecord
  2
ACAD_TEMP_GRAPHIC
 70
     0
  0
APPID
  5
189
330
9
100
AcDbSymbolTableRecord
100
AcDbRegAppTableRecord
  2
ACATTRIBSERVICES
 70
     0
  0
APPID
  5
1C4
330
9
100
AcDbSymbolTableRecord
100
AcDbRegAppTableRecord
  2
ACADM_DIM_EDIT
 70
     0
  0
APPID
  5
1D5
330
9
100
AcDbSymbolTableRecord
100
AcDbRegAppTableRecord
  2
GENIUS_GENDIM_13
 70
     0
  0
APPID
  5
1D6
330
9
100
AcDbSymbolTableRecord
100
AcDbRegAppTableRecord
  2
GENIUS_GENDTOL_13
 70
     0
  0
APPID
  5
1D7
330
9
100
AcDbSymbolTableRecord
100
AcDbRegAppTableRecord
  2
GENIUS_GE3DTOL_13
 70
     0
  0
APPID
  5
2E9
330
9
100
AcDbSymbolTableRecord
100
AcDbRegAppTableRecord
  2
AMG_3D2D_5.0
 70
     0
  0
APPID
  5
3C0
330
9
100
AcDbSymbolTableRecord
100
AcDbRegAppTableRecord
  2
AMDT_DM_ADJ
 70
     0
  0
APPID
  5
82F
330
9
100
AcDbSymbolTableRecord
100
AcDbRegAppTableRecord
  2
ACAD_PSEXT
 70
     0
  0
APPID
  5
84A
330
9
100
AcDbSymbolTableRecord
100
AcDbRegAppTableRecord
  2
DCO15
 70
     0
  0
APPID
  5
892
330
9
100
AcDbSymbolTableRecord
100
AcDbRegAppTableRecord
  2
ACAD_DSTYLE_DIMTEXT_FILL
 70
     0
  0
APPID
  5
A74
330
9
100
AcDbSymbolTableRecord
100
AcDbRegAppTableRecord
  2
ACAD_MLEADERVER
 70
     0
  0
APPID
  5
AB1
330
9
100
AcDbSymbolTableRecord
100
AcDbRegAppTableRecord
  2
AcAecLayerStandard
 70
     0
  0
APPID
  5
CE6
330
9
100
AcDbSymbolTableRecord
100
AcDbRegAppTableRecord
  2
ACAD_NAV_VCDISPLAY
 70
     0
  0
APPID
  5
D0F
330
9
100
AcDbSymbolTableRecord
100
AcDbRegAppTableRecord
  2
ACAD_DSTYLE_DIMARC_LENGTH_SYMBOL
 70
     0
  0
APPID
  5
D10
330
9
100
AcDbSymbolTableRecord
100
AcDbRegAppTableRecord
  2
ACAD_DSTYLE_DIMJOGGED_JOGANGLE_SYMBOL
 70
     0
  0
APPID
  5
D11
330
9
100
AcDbSymbolTableRecord
100
AcDbRegAppTableRecord
  2
ACAD_EXEMPT_FROM_CAD_STANDARDS
 70
     0
  0
APPID
  5
D91
330
9
100
AcDbSymbolTableRecord
100
AcDbRegAppTableRecord
  2
GENIUS_GENTRA_14
 70
     0
  0
APPID
  5
D92
330
9
100
AcDbSymbolTableRecord
100
AcDbRegAppTableRecord
  2
ACAD_DSTYLE_DIMBREAK
 70
     0
  0
APPID
  5
D93
330
9
100
AcDbSymbolTableRecord
100
AcDbRegAppTableRecord
  2
ACAD_DSTYLE_DIMJAG
 70
     0
  0
APPID
  5
D94
330
9
100
AcDbSymbolTableRecord
100
AcDbRegAppTableRecord
  2
ACAD_DSTYLE_DIMTALN
 70
     0
  0
APPID
  5
F9C
330
9
100
AcDbSymbolTableRecord
100
AcDbRegAppTableRecord
  2
GENIUS_GENOBJ-N-TIT_13
 70
     0
  0
APPID
  5
F9D
330
9
100
AcDbSymbolTableRecord
100
AcDbRegAppTableRecord
  2
GENIUS_GENOLIS_13
 70
     0
  0
APPID
  5
F9E
330
9
100
AcDbSymbolTableRecord
100
AcDbRegAppTableRecord
  2
GENIUS_GENODEF_13
 70
     0
  0
APPID
  5
F9F
330
9
100
AcDbSymbolTableRecord
100
AcDbRegAppTableRecord
  2
GENIUS_GENOENT_13
 70
     0
  0
APPID
  5
FA0
330
9
100
AcDbSymbolTableRecord
100
AcDbRegAppTableRecord
  2
GENIUS_GENTITLE_13
 70
     0
  0
APPID
  5
FA1
330
9
100
AcDbSymbolTableRecord
100
AcDbRegAppTableRecord
  2
GENIUS_GENOREF_13
 70
     0
  0
APPID
  5
FA8
330
9
100
AcDbSymbolTableRecord
100
AcDbRegAppTableRecord
  2
GENIUS_GENSCREG_15
 70
     0
  0
APPID
  5
FA9
330
9
100
AcDbSymbolTableRecord
100
AcDbRegAppTableRecord
  2
GENIUS_GENOBJ-N-SDF_13
 70
     0
  0
APPID
  5
14AF
330
9
100
AcDbSymbolTableRecord
100
AcDbRegAppTableRecord
  2
ACAD_OBJECT_CHANGE_GUID
 70
     0
  0
APPID
  5
16D9
330
9
100
AcDbSymbolTableRecord
100
AcDbRegAppTableRecord
  2
ACAUTHENVIRON
 70
     0
  0
APPID
  5
18D6
330
9
100
AcDbSymbolTableRecord
100
AcDbRegAppTableRecord
  2
AcDbDynamicBlockTrueName
 70
     0
  0
APPID
  5
18D7
330
9
100
AcDbSymbolTableRecord
100
AcDbRegAppTableRecord
  2
AcDbDynamicBlockGUID
 70
     0
  0
APPID
  5
2A26
330
9
100
AcDbSymbolTableRecord
100
AcDbRegAppTableRecord
  2
PE_URL
 70
     0
  0
APPID
  5
3192
330
9
100
AcDbSymbolTableRecord
100
AcDbRegAppTableRecord
  2
ACAD_DSTYLE_DIMINSPECT
 70
     0
  0
APPID
  5
3193
330
9
100
AcDbSymbolTableRecord
100
AcDbRegAppTableRecord
  2
GradientColor1ACI
 70
     0
  0
APPID
  5
3194
330
9
100
AcDbSymbolTableRecord
100
AcDbRegAppTableRecord
  2
GradientColor2ACI
 70
     0
  0
ENDTAB
  0
TABLE
  2
DIMSTYLE
  5
A
330
0
100
AcDbSymbolTable
 70
    10
100
AcDbDimStyleTable
 71
     1
340
344
  0
DIMSTYLE
105
344
102
{ACAD_REACTORS
330
433E
102
}
330
A
100
AcDbSymbolTableRecord
100
AcDbDimStyleTableRecord
  2
AM_ISO
 70
     0
  4
"
 41
2.5
 42
1.0
 43
10.0
 44
1.0
 47
0.1
 48
0.1
 73
     0
 74
     0
 77
     1
 78
     8
 79
     2
140
3.5
141
0.0
143
0.0393701
146
0.71
147
1.5
171
     3
172
     1
176
   256
177
   256
178
     2
271
     2
272
     2
274
     3
283
     0
284
     8
340
10
371
    -1
372
    -1
  0
DIMSTYLE
105
345
330
A
100
AcDbSymbolTableRecord
100
AcDbDimStyleTableRecord
  2
AM_ISO$3
 70
     0
  4
"
 41
2.5
 42
1.0
 43
10.0
 44
1.0
 47
0.1
 48
0.1
 73
     0
 77
     1
 78
     8
 79
     2
140
3.5
141
0.0
143
0.0393701
146
0.71
147
1.5
176
   256
177
   256
178
     2
271
     2
272
     3
274
     4
283
     0
284
     8
288
     1
289
     0
340
10
371
    -1
372
    -1
  0
DIMSTYLE
105
346
330
A
100
AcDbSymbolTableRecord
100
AcDbDimStyleTableRecord
  2
AM_ISO$4
 70
     0
  4
"
 41
2.5
 42
1.0
 43
10.0
 44
1.0
 47
0.1
 48
0.1
 73
     0
 77
     1
 78
     8
 79
     2
140
3.5
141
0.0
143
0.0393701
146
0.71
147
1.5
176
   256
177
   256
178
     2
271
     2
272
     3
274
     4
283
     0
284
     8
288
     1
289
     0
340
10
371
    -1
372
    -1
  0
DIMSTYLE
105
347
330
A
100
AcDbSymbolTableRecord
100
AcDbDimStyleTableRecord
  2
AM_ISO$6
 70
     0
  4
"
 41
2.5
 42
1.0
 43
10.0
 44
1.0
 47
0.1
 48
0.1
 73
     0
 74
     0
 78
     8
 79
     2
140
3.5
141
0.0
143
0.0393701
146
0.71
147
1.5
172
     1
176
   256
177
   256
178
     2
271
     2
272
     3
274
     4
283
     0
284
     8
340
10
371
    -1
372
    -1
  0
DIMSTYLE
105
348
330
A
100
AcDbSymbolTableRecord
100
AcDbDimStyleTableRecord
  2
AM_ISO$7
 70
     0
  4
"
 41
2.5
 42
1.0
 43
10.0
 44
1.0
 47
0.1
 48
0.1
 73
     0
 74
     0
 77
     1
 78
     8
 79
     2
140
5.0
141
0.0
143
0.0393701
146
0.71
147
1.5
172
     1
176
   256
177
   256
178
     2
271
     2
272
     3
274
     4
283
     0
284
     8
340
10
371
    -1
372
    -1
  0
DIMSTYLE
105
349
330
A
100
AcDbSymbolTableRecord
100
AcDbDimStyleTableRecord
  2
AM_ISO$SF
 70
     0
  4
"
 41
2.5
 42
1.0
 43
10.0
 44
1.0
 47
0.1
 48
0.1
 73
     0
 74
     0
 75
     1
 76
     1
 77
     1
 78
     8
 79
     2
140
3.5
141
0.0
143
0.0393701
146
0.71
147
1.5
172
     1
176
   256
177
   256
178
     2
271
     2
272
     3
274
     4
283
     0
284
     8
340
10
371
    -1
372
    -1
  0
DIMSTYLE
105
34A
330
A
100
AcDbSymbolTableRecord
100
AcDbDimStyleTableRecord
  2
AM_ISO$SH
 70
     0
  4
"
 41
2.5
 42
1.0
 43
10.0
 44
1.0
 47
0.1
 48
0.1
 73
     0
 74
     0
 75
     1
 76
     1
 77
     1
 78
     8
 79
     2
140
3.5
141
0.0
143
0.0393701
144
2.0
146
0.71
147
1.5
172
     1
173
     1
176
   256
177
   256
178
     2
271
     2
272
     3
274
     4
283
     0
284
     8
340
10
343
2F4
371
    -1
372
    -1
  0
DIMSTYLE
105
D0D
330
A
100
AcDbSymbolTableRecord
100
AcDbDimStyleTableRecord
  2
STANDARD
 70
     0
 41
3.5
 42
2.0
 43
10.0
 44
1.0
 46
2.0
 73
     0
 74
     0
 77
     1
 78
     8
140
3.5
141
0.0
143
25.39999999999999
145
1.0
147
1.0
172
     1
175
     1
176
   256
177
   256
178
     3
271
     2
272
     2
284
     8
340
D0A
  0
DIMSTYLE
105
D0E
102
{ACAD_REACTORS
330
420D
330
4210
330
4213
330
4216
330
4219
330
421C
330
4613
330
4616
330
4619
330
461C
330
461F
330
4622
102
}
330
A
100
AcDbSymbolTableRecord
100
AcDbDimStyleTableRecord
  2
AM_ISO$0
 70
     0
  4
"
 41
2.5
 42
1.0
 43
10.0
 44
1.0
 47
0.1
 48
0.1
 73
     0
 74
     0
 77
     1
 78
     8
 79
     2
140
3.5
141
0.0
143
0.0393701
146
0.71
147
1.5
172
     1
176
   256
177
   256
178
     2
271
     2
272
     3
274
     4
283
     0
284
     8
340
10
371
    -1
372
    -1
  0
ENDTAB
  0
TABLE
  2
BLOCK_RECORD
  5
1
330
0
100
AcDbSymbolTable
 70
    15
  0
BLOCK_RECORD
  5
1A
102
{ACAD_XDICTIONARY
360
12A
102
}
330
1
100
AcDbSymbolTableRecord
100
AcDbBlockTableRecord
  2
*MODEL_SPACE
340
169
 70
     0
280
     1
281
     0
  0
BLOCK_RECORD
  5
2CA3
330
1
100
AcDbSymbolTableRecord
100
AcDbBlockTableRecord
  2
*Paper_Space
340
2CA4
 70
     0
280
     1
281
     0
  0
BLOCK_RECORD
  5
2F4
330
1
100
AcDbSymbolTableRecord
100
AcDbBlockTableRecord
  2
GENAXEH
340
0
 70
     0
280
     1
281
     0
  0
BLOCK_RECORD
  5
D74
330
1
100
AcDbSymbolTableRecord
100
AcDbBlockTableRecord
  2
_ACMFILLED15
340
0
310
2800000020000000200000000100080000000000000400000000000000000000000000000000000000000000000080000080000000808000800000008000800080800000C0C0C000C0DCC000F0CAA6000020400000206000002080000020A0000020C0000020E00000400000004020000040400000406000004080000040A0
310
000040C0000040E00000600000006020000060400000606000006080000060A0000060C0000060E00000800000008020000080400000806000008080000080A0000080C0000080E00000A0000000A0200000A0400000A0600000A0800000A0A00000A0C00000A0E00000C0000000C0200000C0400000C0600000C0800000C0
310
A00000C0C00000C0E00000E0000000E0200000E0400000E0600000E0800000E0A00000E0C00000E0E00040000000400020004000400040006000400080004000A0004000C0004000E00040200000402020004020400040206000402080004020A0004020C0004020E000404000004040200040404000404060004040800040
310
40A0004040C0004040E00040600000406020004060400040606000406080004060A0004060C0004060E00040800000408020004080400040806000408080004080A0004080C0004080E00040A0000040A0200040A0400040A0600040A0800040A0A00040A0C00040A0E00040C0000040C0200040C0400040C0600040C08000
310
40C0A00040C0C00040C0E00040E0000040E0200040E0400040E0600040E0800040E0A00040E0C00040E0E00080000000800020008000400080006000800080008000A0008000C0008000E00080200000802020008020400080206000802080008020A0008020C0008020E00080400000804020008040400080406000804080
310
008040A0008040C0008040E00080600000806020008060400080606000806080008060A0008060C0008060E00080800000808020008080400080806000808080008080A0008080C0008080E00080A0000080A0200080A0400080A0600080A0800080A0A00080A0C00080A0E00080C0000080C0200080C0400080C0600080C0
310
800080C0A00080C0C00080C0E00080E0000080E0200080E0400080E0600080E0800080E0A00080E0C00080E0E000C0000000C0002000C0004000C0006000C0008000C000A000C000C000C000E000C0200000C0202000C0204000C0206000C0208000C020A000C020C000C020E000C0400000C0402000C0404000C0406000C0
310
408000C040A000C040C000C040E000C0600000C0602000C0604000C0606000C0608000C060A000C060C000C060E000C0800000C0802000C0804000C0806000C0808000C080A000C080C000C080E000C0A00000C0A02000C0A04000C0A06000C0A08000C0A0A000C0A0C000C0A0E000C0C00000C0C02000C0C04000C0C06000
310
C0C08000C0C0A000F0FBFF00A4A0A000808080000000FF0000FF000000FFFF00FF000000FF00FF00FFFF0000FFFFFF0000000000000000000000000000000000000000000000000000000000000000000000000000000000000000000000000000000000000000000000000000000000000000000000000000000000000000
310
00000000000000000000000000000000000000000000000000000000000000000000000000000000000000000000000000000000000000000000000000000000000000000000000000000000000000000000000000000000000000000000000000000000000000000000000000000000000000000000000000000000000000
310
00000000000000000000000000000000000000000000000000000000000000000000000000000000000000000000000000000000000000000000000000000000000000000000000000000000000000000000000000000000000000000000000000000000000000000000000000000000000000000000000000000000000000
310
00000000000000000000000000000000000000000000000000000000000000000000000000000000000000000000000000000000FFFFFFFF00000000000000000000000000000000000000000000000000000000FFFFFFFFFFFFFFFFFFFFFF000000000000000000000000000000000000000000FFFFFFFFFFFFFFFFFFFFFF
310
FFFFFFFFFFFFFFFF00000000000000000000000000FFFFFFFFFFFFFFFFFFFFFFFFFFFFFFFFFFFFFFFFFFFFFFFFFFFF000000000000FFFFFFFFFFFFFFFFFFFFFFFFFFFFFFFFFFFFFFFFFFFFFFFFFFFFFFFFFFFF0000FFFFFFFFFFFFFFFFFFFFFFFFFFFFFFFFFFFFFFFFFFFFFFFFFF00000000000000FFFFFFFFFFFFFFFFFFFF
310
FFFFFFFFFF0000000000000000000000000000000000FFFFFFFFFF00000000000000000000000000000000000000000000000000000000000000000000000000000000000000000000000000000000000000000000000000000000000000000000000000000000000000000000000000000000000000000000000000000000
310
00000000000000000000000000000000000000000000000000000000000000000000000000000000000000000000000000000000000000000000000000000000000000000000000000000000000000000000000000000000000000000000000000000000000000000000000000000000000000000000000000000000000000
310
00000000000000000000000000000000000000000000000000000000000000000000000000000000000000000000000000000000000000000000000000000000000000000000000000000000000000000000000000000000000000000000000000000000000000000000000000000000000000000000000000000000000000
310
0000000000000000000000000000000000000000000000000000000000000000000000000000000000000000000000000000000000000000
 70
     0
280
     1
281
     0
  0
BLOCK_RECORD
  5
D78
330
1
100
AcDbSymbolTableRecord
100
AcDbBlockTableRecord
  2
_ACMFILLED30
340
0
 70
     0
280
     1
281
     0
  0
BLOCK_RECORD
  5
37F5
330
1
100
AcDbSymbolTableRecord
100
AcDbBlockTableRecord
  2
*D3
340
0
 70
     0
280
     1
281
     0
  0
BLOCK_RECORD
  5
380D
330
1
100
AcDbSymbolTableRecord
100
AcDbBlockTableRecord
  2
*D4
340
0
 70
     0
280
     1
281
     0
  0
BLOCK_RECORD
  5
3819
330
1
100
AcDbSymbolTableRecord
100
AcDbBlockTableRecord
  2
*D5
340
0
 70
     0
280
     1
281
     0
  0
BLOCK_RECORD
  5
3825
330
1
100
AcDbSymbolTableRecord
100
AcDbBlockTableRecord
  2
*D6
340
0
 70
     0
280
     1
281
     0
  0
BLOCK_RECORD
  5
3831
330
1
100
AcDbSymbolTableRecord
100
AcDbBlockTableRecord
  2
*D7
340
0
 70
     0
280
     1
281
     0
  0
BLOCK_RECORD
  5
384F
102
{ACAD_XDICTIONARY
360
46A2
102
}
330
1
100
AcDbSymbolTableRecord
100
AcDbBlockTableRecord
  2
HD32EX
340
0
310
2800000020000000200000000100080000000000000400000000000000000000000000000000000000000000000080000080000000808000800000008000800080800000C0C0C000C0DCC000F0CAA6000020400000206000002080000020A0000020C0000020E00000400000004020000040400000406000004080000040A0
310
000040C0000040E00000600000006020000060400000606000006080000060A0000060C0000060E00000800000008020000080400000806000008080000080A0000080C0000080E00000A0000000A0200000A0400000A0600000A0800000A0A00000A0C00000A0E00000C0000000C0200000C0400000C0600000C0800000C0
310
A00000C0C00000C0E00000E0000000E0200000E0400000E0600000E0800000E0A00000E0C00000E0E00040000000400020004000400040006000400080004000A0004000C0004000E00040200000402020004020400040206000402080004020A0004020C0004020E000404000004040200040404000404060004040800040
310
40A0004040C0004040E00040600000406020004060400040606000406080004060A0004060C0004060E00040800000408020004080400040806000408080004080A0004080C0004080E00040A0000040A0200040A0400040A0600040A0800040A0A00040A0C00040A0E00040C0000040C0200040C0400040C0600040C08000
310
40C0A00040C0C00040C0E00040E0000040E0200040E0400040E0600040E0800040E0A00040E0C00040E0E00080000000800020008000400080006000800080008000A0008000C0008000E00080200000802020008020400080206000802080008020A0008020C0008020E00080400000804020008040400080406000804080
310
008040A0008040C0008040E00080600000806020008060400080606000806080008060A0008060C0008060E00080800000808020008080400080806000808080008080A0008080C0008080E00080A0000080A0200080A0400080A0600080A0800080A0A00080A0C00080A0E00080C0000080C0200080C0400080C0600080C0
310
800080C0A00080C0C00080C0E00080E0000080E0200080E0400080E0600080E0800080E0A00080E0C00080E0E000C0000000C0002000C0004000C0006000C0008000C000A000C000C000C000E000C0200000C0202000C0204000C0206000C0208000C020A000C020C000C020E000C0400000C0402000C0404000C0406000C0
310
408000C040A000C040C000C040E000C0600000C0602000C0604000C0606000C0608000C060A000C060C000C060E000C0800000C0802000C0804000C0806000C0808000C080A000C080C000C080E000C0A00000C0A02000C0A04000C0A06000C0A08000C0A0A000C0A0C000C0A0E000C0C00000C0C02000C0C04000C0C06000
310
C0C08000C0C0A000F0FBFF00A4A0A000808080000000FF0000FF000000FFFF00FF000000FF00FF00FFFF0000FFFFFF0049494949494949494949494949494949494949494949494949494949494949494949494949494949494949FA494949494949494949494949FAFA4949494949494949494949494949494949FAFAFAFA
310
FAFAFBFBFBFAFAFAFAFAFA4949494949494949494949494949494949FAFAFAFAFAFAFBFBFBFAFAFAFAFAFA4949494949494949494949494949494949FAFAFAFBFBFBFBFA4949494949FAFA49494949494949494949494949FAFAFAFAFAFFFFFFFFFFFFFFFFFFFFFFFFFFFA49494949494949494949494949FA49FAFAFFFFFF
310
FFFFFFFFFFFFFFFFFFFFFFFF49494949494949494949494949FA49FAFAFFFFFFFFFFFFFFFFFFFFFFFF49FFFF49494949494949494949494949FA49FAFAFFFFFF49494949FF494949FF49FFFF49494949494949494949494949FA49FAFAFFFFFF49494949FF494949FF49FFFF49494949494949494949494949FA49FAFAFFFF
310
FF49494949FF494949FF49FFFF49494949494949494949494949FA49FAFAFFFFFF49494949FF494949FF49FFFF49494949494949494949494949FA49FAFAFFFFFF49494949FF494949FF49FFFF49494949494949494949494949FA49FAFAFFFFFF49494949FF494949FF49FFFF49494949494949494949494949FA49FAFBFF
310
FFFF49494949FF494949FF49FFFF49494949494949494949494949FA49FAFBFFFFFF49494949FF494949FF49FFFF494949494949494949494949FBFBFBFBFBFFFFFF49494949FF494949FF49FFFF494949494949494949494949FBFBFBFBFBFFFFFF49494949FF494949FF49FFFF494949494949494949494949FBFBFBFBFA
310
FFFFFF49494949FF494949FF49FFFF494949494949494949494949FBFBFBFBFAFFFFFF49494949FF494949FF49FFFF49494949494949494949494949FA49FAFAFFFFFF49494949FF494949FF49FFFF49494949494949494949494949FA49FAFAFFFFFF49494949FF494949FF49FFFF49494949494949494949494949FA49FA
310
FAFFFFFF49494949FF494949FF49FFFF49494949494949494949494949FA49FAFAFFFFFF49494949FF494949FF49FFFF49494949494949494949494949FA49FAFAFFFFFFFFFFFFFFFFFFFFFFFFFFFFFF49494949494949494949494949FA49FA49FFFFFF49FFFFFFFFFFFFFFFFFFFFFF49494949494949494949494949FA49
310
FA49FFFFFF49FFFFFFFFFFFFFFFFFFFFFF49494949494949494949494949FA49FA49FFFFFFFFFFFFFFFFFFFFFFFFFFFFFF49494949494949494949494949FA49FA49FFFF49FFFFFF49494949494949FFFF49494949494949494949494949FA49FAFAFFFFFFFFFFFFFFFFFFFFFFFFFFFFFF49494949494949494949494949FA
310
FAFAFAFAFFFFFFFFFFFFFFFFFFFFFFFF49494949494949494949494949494949494949494949494949494949494949494949494949494949
102
{BLKREFS
331
3B7D
102
}
 70
     4
280
     1
281
     0
1001
AcDbDynamicBlockGUID
1000
{EA50A5DD-5E77-4EC8-9CF1-49B3CDBA8820}
  0
BLOCK_RECORD
  5
424E
330
1
100
AcDbSymbolTableRecord
100
AcDbBlockTableRecord
  2
*D9
340
0
 70
     0
280
     1
281
     0
  0
BLOCK_RECORD
  5
46A6
330
1
100
AcDbSymbolTableRecord
100
AcDbBlockTableRecord
  2
info
340
0
310
2800000020000000200000000100080000000000000400000000000000000000000000000000000000000000000080000080000000808000800000008000800080800000C0C0C000C0DCC000F0CAA6000020400000206000002080000020A0000020C0000020E00000400000004020000040400000406000004080000040A0
310
000040C0000040E00000600000006020000060400000606000006080000060A0000060C0000060E00000800000008020000080400000806000008080000080A0000080C0000080E00000A0000000A0200000A0400000A0600000A0800000A0A00000A0C00000A0E00000C0000000C0200000C0400000C0600000C0800000C0
310
A00000C0C00000C0E00000E0000000E0200000E0400000E0600000E0800000E0A00000E0C00000E0E00040000000400020004000400040006000400080004000A0004000C0004000E00040200000402020004020400040206000402080004020A0004020C0004020E000404000004040200040404000404060004040800040
310
40A0004040C0004040E00040600000406020004060400040606000406080004060A0004060C0004060E00040800000408020004080400040806000408080004080A0004080C0004080E00040A0000040A0200040A0400040A0600040A0800040A0A00040A0C00040A0E00040C0000040C0200040C0400040C0600040C08000
310
40C0A00040C0C00040C0E00040E0000040E0200040E0400040E0600040E0800040E0A00040E0C00040E0E00080000000800020008000400080006000800080008000A0008000C0008000E00080200000802020008020400080206000802080008020A0008020C0008020E00080400000804020008040400080406000804080
310
008040A0008040C0008040E00080600000806020008060400080606000806080008060A0008060C0008060E00080800000808020008080400080806000808080008080A0008080C0008080E00080A0000080A0200080A0400080A0600080A0800080A0A00080A0C00080A0E00080C0000080C0200080C0400080C0600080C0
310
800080C0A00080C0C00080C0E00080E0000080E0200080E0400080E0600080E0800080E0A00080E0C00080E0E000C0000000C0002000C0004000C0006000C0008000C000A000C000C000C000E000C0200000C0202000C0204000C0206000C0208000C020A000C020C000C020E000C0400000C0402000C0404000C0406000C0
310
408000C040A000C040C000C040E000C0600000C0602000C0604000C0606000C0608000C060A000C060C000C060E000C0800000C0802000C0804000C0806000C0808000C080A000C080C000C080E000C0A00000C0A02000C0A04000C0A06000C0A08000C0A0A000C0A0C000C0A0E000C0C00000C0C02000C0C04000C0C06000
310
C0C08000C0C0A000F0FBFF00A4A0A000808080000000FF0000FF000000FFFF00FF000000FF00FF00FFFF0000FFFFFF00FFFFFFFFFFFFFFFFFFFFFFFFFFFFFFFFFFFFFFFFFFFFFFFFFFFFFFFFFFFFFFFFFFFFFFFFFFFFFFFFFFFFFFFFFFFFFFFFFFFFFFFFFFFFFFFFFFFFFFFFFFFFFFFFFFFFFFFFFFFFFFFFFFFFFFFFFFFFFF
310
FFFFFFFFFFFFFFFFFFFFFFFFFFFFFFFFFFFFFFFFFFFFFFFFFFFFFFFFFFFFFFFFFFFFFFFFFFFFFFFFFFFFFFFFFFFFFFFFFFFFFFFFFFFFFFFFFFFFFFFF00FFFFFFFFFFFFFFFFFFFFFFFFFFFFFFFFFFFFFFFFFFFFFFFFFFFFFFFFFFFF00FFFFFFFFFFFFFFFFFFFFFFFFFFFFFFFFFFFFFFFFFFFFFFFFFFFFFFFFFFFF00FFFFFFFF
310
FFFFFFFFFFFFFFFFFFFFFFFFFFFFFFFFFFFF0000000000FFFFFF00FFFFFFFF00FFFFFF00FFFF000000FFFF0000000000FFFFFFFFFFFFFF000000FFFFFFFFFF00FFFFFF00FF00FFFFFF00FFFFFF00FFFF00FFFFFFFFFFFFFF0000FFFFFFFFFF00FFFFFF00FFFFFFFFFF00FFFFFF00FFFF00FFFFFFFFFFFF00FF00FFFFFFFFFF
310
0000000000FFFFFFFFFF00FFFFFF00FFFF00FFFFFFFFFF00FFFFFF00FFFFFFFF00FFFFFF00FFFFFFFFFF00FFFFFF00FFFF00FFFFFFFF00FFFFFFFF00FFFFFFFF00FFFFFF00FFFFFFFFFF00FFFFFF00FFFF00FF00FF00FFFFFFFFFF00FFFFFFFF00FFFFFF00FFFFFFFFFF00FF0000000000FFFFFF00FFFFFFFFFFFFFF00FFFF
310
FFFFFFFFFFFFFFFFFFFFFFFFFFFFFFFFFFFFFFFF00FF00FFFFFFFFFF00FFFFFFFFFFFFFFFFFFFFFFFFFFFFFFFFFFFFFFFFFFFFFFFFFFFF00FFFFFFFF00FFFFFFFFFFFFFFFFFFFFFFFFFFFFFFFFFFFFFFFFFFFFFFFFFFFFFF00FFFFFF00FFFFFFFFFFFFFFFFFFFFFFFFFFFFFFFFFFFFFFFFFFFFFFFFFFFFFFFF00FF00FFFFFF
310
FFFF00000000FFFF00FFFFFF00FF0000000000FFFFFFFFFFFFFFFF0000FFFFFFFFFFFF00FFFF00FF00FFFF00FFFFFFFF00FFFF00FFFFFFFFFFFF000000FFFFFFFFFFFF00FFFF00FF00FF00FFFFFFFFFF00FFFF00FF0000000000FFFFFF00FFFFFFFFFF000000FFFF00000000FFFFFFFF00FFFF00FFFFFFFFFFFFFFFFFFFF00
310
FFFFFFFF00FFFF00FF00FFFFFF00FFFFFF00FFFF00FFFFFFFFFFFFFFFFFFFFFF00FFFFFF00FFFF00FF00FFFFFF00FFFFFF00FFFF00FFFFFFFFFFFFFFFFFFFFFFFF00FF00000000FFFF00000000FFFF0000000000FFFFFFFFFFFFFFFFFFFFFFFFFFFFFFFFFFFFFFFFFFFFFFFFFFFFFFFFFFFFFFFFFFFFFFFFFFFFFFFFFFFFFF
310
FFFFFFFFFFFFFFFFFFFFFFFFFFFFFFFFFFFFFFFFFFFFFFFFFFFFFFFFFFFFFFFFFFFFFFFFFFFFFFFFFFFFFFFFFFFFFFFFFFFFFFFFFFFFFFFFFFFFFFFFFFFFFFFFFFFFFFFFFFFFFFFFFFFFFFFFFFFFFFFFFFFFFFFFFFFFFFFFFFFFFFFFFFFFFFFFFFFFFFFFFFFFFFFFFFFFFFFFFFFFFFFFFFFFFFFFFFFFFFFFFFFFFFFFFFFFFF
310
FFFFFFFFFFFFFFFFFFFFFFFFFFFFFFFFFFFFFFFFFFFFFFFFFFFFFFFFFFFFFFFFFFFFFFFFFFFFFFFFFFFFFFFFFFFFFFFFFFFFFFFFFFFFFFFF
102
{BLKREFS
331
46B8
331
46C8
102
}
 70
     4
280
     1
281
     0
  0
ENDTAB
  0
ENDSEC
  0
SECTION
  2
BLOCKS
  0
BLOCK
  5
1B
330
1A
100
AcDbEntity
  8
0
100
AcDbBlockBegin
  2
*MODEL_SPACE
 70
     0
 10
0.0
 20
0.0
 30
0.0
  3
*MODEL_SPACE
  1

  0
ENDBLK
  5
1C
330
1A
100
AcDbEntity
  8
0
100
AcDbBlockEnd
  0
BLOCK
  5
2CA5
330
2CA3
100
AcDbEntity
 67
     1
  8
0
100
AcDbBlockBegin
  2
*Paper_Space
 70
     0
 10
0.0
 20
0.0
 30
0.0
  3
*Paper_Space
  1

  0
ENDBLK
  5
2CA6
330
2CA3
100
AcDbEntity
 67
     1
  8
0
100
AcDbBlockEnd
  0
BLOCK
  5
C49
330
2F4
100
AcDbEntity
  8
0
100
AcDbBlockBegin
  2
GENAXEH
 70
     0
 10
0.0
 20
0.0
 30
0.0
  3
GENAXEH
  1

  0
LINE
  5
C4A
330
2F4
100
AcDbEntity
  8
0
100
AcDbLine
 10
-1.0
 20
0.0
 30
0.0
 11
1.0
 21
0.0
 31
0.0
  0
ENDBLK
  5
C4B
330
2F4
100
AcDbEntity
  8
0
100
AcDbBlockEnd
  0
BLOCK
  5
D75
330
D74
100
AcDbEntity
  8
0
100
AcDbBlockBegin
  2
_ACMFILLED15
 70
     0
 10
0.0
 20
0.0
 30
0.0
  3
_ACMFILLED15
  1

  0
TRACE
  5
D76
330
D74
100
AcDbEntity
  8
AM_0
 62
     0
100
AcDbTrace
 10
-1.0
 20
-0.131652497
 30
0.0
 11
-1.0
 21
0.131652497
 31
0.0
 12
0.0
 22
0.0
 32
0.0
 13
0.0
 23
0.0
 33
0.0
  0
ENDBLK
  5
D77
330
D74
100
AcDbEntity
  8
0
100
AcDbBlockEnd
  0
BLOCK
  5
D79
330
D78
100
AcDbEntity
  8
0
100
AcDbBlockBegin
  2
_ACMFILLED30
 70
     0
 10
0.0
 20
0.0
 30
0.0
  3
_ACMFILLED30
  1

  0
TRACE
  5
D7A
330
D78
100
AcDbEntity
  8
AM_0
 62
     0
100
AcDbTrace
 10
-1.0
 20
-0.26794919
 30
0.0
 11
-1.0
 21
0.26794919
 31
0.0
 12
0.0
 22
0.0
 32
0.0
 13
0.0
 23
0.0
 33
0.0
  0
ENDBLK
  5
D7B
330
D78
100
AcDbEntity
  8
0
100
AcDbBlockEnd
  0
BLOCK
  5
37F6
330
37F5
100
AcDbEntity
  8
0
100
AcDbBlockBegin
  2
*D3
 70
     1
 10
0.0
 20
0.0
 30
0.0
  3
*D3
  1

  0
LINE
  5
37F8
330
37F5
100
AcDbEntity
  8
DIM
440
 16777216
100
AcDbLine
 10
64.95300229389139
 20
263.7263659116834
 30
0.0
 11
22.09977979021374
 21
263.7263659116834
 31
0.0
  0
LINE
  5
37F9
330
37F5
100
AcDbEntity
  8
DIM
440
 16777216
100
AcDbLine
 10
64.95300229389221
 20
43.72636591168481
 30
0.0
 11
22.09977979021369
 21
43.72636591168482
 31
0.0
  0
LINE
  5
37FA
330
37F5
100
AcDbEntity
  8
DIM
440
 16777216
100
AcDbLine
 10
23.09977979021374
 20
261.2263659116834
 30
0.0
 11
23.09977979021369
 21
46.22636591168482
 31
0.0
  0
SOLID
  5
37FB
330
37F5
100
AcDbEntity
  8
DIM
440
 16777216
100
AcDbTrace
 10
22.68311312354708
 20
261.2263659116834
 30
0.0
 11
23.5164464568804
 21
261.2263659116834
 31
0.0
 12
23.09977979021374
 22
263.7263659116834
 32
0.0
 13
23.09977979021374
 23
263.7263659116834
 33
0.0
  0
SOLID
  5
37FC
330
37F5
100
AcDbEntity
  8
DIM
440
 16777216
100
AcDbTrace
 10
22.68311312354702
 20
46.22636591168482
 30
0.0
 11
23.51644645688036
 21
46.22636591168482
 31
0.0
 12
23.09977979021369
 22
43.72636591168482
 32
0.0
 13
23.09977979021369
 23
43.72636591168482
 33
0.0
  0
MTEXT
  5
37FD
330
37F5
100
AcDbEntity
  8
DIM
 62
     2
440
 16777216
100
AcDbMText
 10
19.67477979021369
 20
153.7263659116841
 30
0.0
 40
3.5
 41
0.0
 46
0.0
 71
     5
 72
     1
  1
220 [8.661"]
 11
0.0000000000000001
 21
1.0
 31
0.0
 73
     1
 44
1.0
  0
POINT
  5
37FE
330
37F5
100
AcDbEntity
  8
Defpoints
 62
     0
440
 16777216
100
AcDbPoint
 10
65.95300229389138
 20
263.7263659116834
 30
0.0
  0
POINT
  5
37FF
330
37F5
100
AcDbEntity
  8
Defpoints
 62
     0
440
 16777216
100
AcDbPoint
 10
65.95300229389221
 20
43.72636591168481
 30
0.0
  0
POINT
  5
3800
330
37F5
100
AcDbEntity
  8
Defpoints
 62
     0
440
 16777216
100
AcDbPoint
 10
23.09977979021369
 20
43.72636591168482
 30
0.0
  0
ENDBLK
  5
37F7
330
37F5
100
AcDbEntity
  8
0
100
AcDbBlockEnd
  0
BLOCK
  5
380E
330
380D
100
AcDbEntity
  8
0
100
AcDbBlockBegin
  2
*D4
 70
     1
 10
0.0
 20
0.0
 30
0.0
  3
*D4
  1

  0
LINE
  5
3810
330
380D
100
AcDbEntity
  8
DIM
440
 16777216
100
AcDbLine
 10
55.9530022938911
 20
52.72636591168472
 30
0.0
 11
55.9530022938911
 21
9.999999936734127
 31
0.0
  0
LINE
  5
3811
330
380D
100
AcDbEntity
  8
DIM
440
 16777216
100
AcDbLine
 10
168.3530022938907
 20
52.72636591168506
 30
0.0
 11
168.3530022938907
 21
9.999999936734127
 31
0.0
  0
LINE
  5
3812
330
380D
100
AcDbEntity
  8
DIM
440
 16777216
100
AcDbLine
 10
58.4530022938911
 20
10.99999993673413
 30
0.0
 11
165.8530022938907
 21
10.99999993673413
 31
0.0
  0
SOLID
  5
3813
330
380D
100
AcDbEntity
  8
DIM
440
 16777216
100
AcDbTrace
 10
58.4530022938911
 20
11.41666660340079
 30
0.0
 11
58.4530022938911
 21
10.58333327006746
 31
0.0
 12
55.9530022938911
 22
10.99999993673413
 32
0.0
 13
55.9530022938911
 23
10.99999993673413
 33
0.0
  0
SOLID
  5
3814
330
380D
100
AcDbEntity
  8
DIM
440
 16777216
100
AcDbTrace
 10
165.8530022938907
 20
11.41666660340079
 30
0.0
 11
165.8530022938907
 21
10.58333327006746
 31
0.0
 12
168.3530022938907
 22
10.99999993673413
 32
0.0
 13
168.3530022938907
 23
10.99999993673413
 33
0.0
  0
MTEXT
  5
3815
330
380D
100
AcDbEntity
  8
DIM
 62
     2
440
 16777216
100
AcDbMText
 10
112.1530022938909
 20
14.42499993673413
 30
0.0
 40
3.5
 41
0.0
 46
0.0
 71
     5
 72
     1
  1
112.4 [4.425"]
 73
     1
 44
1.0
  0
POINT
  5
3816
330
380D
100
AcDbEntity
  8
Defpoints
 62
     0
440
 16777216
100
AcDbPoint
 10
55.9530022938911
 20
53.72636591168472
 30
0.0
  0
POINT
  5
3817
330
380D
100
AcDbEntity
  8
Defpoints
 62
     0
440
 16777216
100
AcDbPoint
 10
168.3530022938907
 20
53.72636591168507
 30
0.0
  0
POINT
  5
3818
330
380D
100
AcDbEntity
  8
Defpoints
 62
     0
440
 16777216
100
AcDbPoint
 10
168.3530022938907
 20
10.99999993673413
 30
0.0
  0
ENDBLK
  5
380F
330
380D
100
AcDbEntity
  8
0
100
AcDbBlockEnd
  0
BLOCK
  5
381A
330
3819
100
AcDbEntity
  8
0
100
AcDbBlockBegin
  2
*D5
 70
     1
 10
0.0
 20
0.0
 30
0.0
  3
*D5
  1

  0
LINE
  5
3846
330
3819
100
AcDbEntity
  8
DIM
440
 16777216
100
AcDbLine
 10
47.15300229389124
 20
49.7263659116848
 30
0.0
 11
47.15300229389124
 21
-0.0000000632661568
 31
0.0
  0
LINE
  5
3847
330
3819
100
AcDbEntity
  8
DIM
440
 16777216
100
AcDbLine
 10
177.1530022938907
 20
49.72636591168452
 30
0.0
 11
177.1530022938907
 21
-0.0000000632661568
 31
0.0
  0
LINE
  5
3848
330
3819
100
AcDbEntity
  8
DIM
440
 16777216
100
AcDbLine
 10
49.65300229389125
 20
0.9999999367338432
 30
0.0
 11
174.6530022938907
 21
0.9999999367338432
 31
0.0
  0
SOLID
  5
3849
330
3819
100
AcDbEntity
  8
DIM
440
 16777216
100
AcDbTrace
 10
49.65300229389125
 20
1.41666660340051
 30
0.0
 11
49.65300229389125
 21
0.5833332700671765
 31
0.0
 12
47.15300229389124
 22
0.9999999367338432
 32
0.0
 13
47.15300229389124
 23
0.9999999367338432
 33
0.0
  0
SOLID
  5
384A
330
3819
100
AcDbEntity
  8
DIM
440
 16777216
100
AcDbTrace
 10
174.6530022938907
 20
1.41666660340051
 30
0.0
 11
174.6530022938907
 21
0.5833332700671765
 31
0.0
 12
177.1530022938907
 22
0.9999999367338432
 32
0.0
 13
177.1530022938907
 23
0.9999999367338432
 33
0.0
  0
MTEXT
  5
384B
330
3819
100
AcDbEntity
  8
DIM
 62
     2
440
 16777216
100
AcDbMText
 10
112.153002293891
 20
4.424999936733842
 30
0.0
 40
3.5
 41
0.0
 46
0.0
 71
     5
 72
     1
  1
130 [5.118"]
 73
     1
 44
1.0
  0
POINT
  5
384C
330
3819
100
AcDbEntity
  8
Defpoints
 62
     0
440
 16777216
100
AcDbPoint
 10
47.15300229389124
 20
50.72636591168481
 30
0.0
  0
POINT
  5
384D
330
3819
100
AcDbEntity
  8
Defpoints
 62
     0
440
 16777216
100
AcDbPoint
 10
177.1530022938907
 20
50.72636591168453
 30
0.0
  0
POINT
  5
384E
330
3819
100
AcDbEntity
  8
Defpoints
 62
     0
440
 16777216
100
AcDbPoint
 10
177.1530022938907
 20
0.9999999367338432
 30
0.0
  0
ENDBLK
  5
381B
330
3819
100
AcDbEntity
  8
0
100
AcDbBlockEnd
  0
BLOCK
  5
3826
330
3825
100
AcDbEntity
  8
0
100
AcDbBlockBegin
  2
*D6
 70
     1
 10
0.0
 20
0.0
 30
0.0
  3
*D6
  1

  0
LINE
  5
3828
330
3825
100
AcDbEntity
  8
DIM
440
 16777216
100
AcDbLine
 10
69.05300229389104
 20
55.7263659116845
 30
0.0
 11
69.05300229389104
 21
19.9999999367338
 31
0.0
  0
LINE
  5
3829
330
3825
100
AcDbEntity
  8
DIM
440
 16777216
100
AcDbLine
 10
109.053002293891
 20
55.7263659116845
 30
0.0
 11
109.053002293891
 21
19.9999999367338
 31
0.0
  0
LINE
  5
382A
330
3825
100
AcDbEntity
  8
DIM
440
 16777216
100
AcDbLine
 10
71.55300229389105
 20
20.99999993673382
 30
0.0
 11
106.553002293891
 21
20.99999993673382
 31
0.0
  0
SOLID
  5
382B
330
3825
100
AcDbEntity
  8
DIM
440
 16777216
100
AcDbTrace
 10
71.55300229389105
 20
21.41666660340048
 30
0.0
 11
71.55300229389105
 21
20.58333327006715
 31
0.0
 12
69.05300229389104
 22
20.99999993673382
 32
0.0
 13
69.05300229389104
 23
20.99999993673382
 33
0.0
  0
SOLID
  5
382C
330
3825
100
AcDbEntity
  8
DIM
440
 16777216
100
AcDbTrace
 10
106.553002293891
 20
21.41666660340048
 30
0.0
 11
106.553002293891
 21
20.58333327006715
 31
0.0
 12
109.053002293891
 22
20.99999993673382
 32
0.0
 13
109.053002293891
 23
20.99999993673382
 33
0.0
  0
MTEXT
  5
382D
330
3825
100
AcDbEntity
  8
DIM
 62
     2
440
 16777216
100
AcDbMText
 10
89.05300229389103
 20
24.42499993673381
 30
0.0
 40
3.5
 41
0.0
 46
0.0
 71
     5
 72
     1
  1
40 [1.575"]
 73
     1
 44
1.0
  0
POINT
  5
382E
330
3825
100
AcDbEntity
  8
Defpoints
 62
     0
440
 16777216
100
AcDbPoint
 10
69.05300229389104
 20
56.72636591168449
 30
0.0
  0
POINT
  5
382F
330
3825
100
AcDbEntity
  8
Defpoints
 62
     0
440
 16777216
100
AcDbPoint
 10
109.053002293891
 20
56.72636591168449
 30
0.0
  0
POINT
  5
3830
330
3825
100
AcDbEntity
  8
Defpoints
 62
     0
440
 16777216
100
AcDbPoint
 10
109.053002293891
 20
20.99999993673382
 30
0.0
  0
ENDBLK
  5
3827
330
3825
100
AcDbEntity
  8
0
100
AcDbBlockEnd
  0
BLOCK
  5
3832
330
3831
100
AcDbEntity
  8
0
100
AcDbBlockBegin
  2
*D7
 70
     1
 10
0.0
 20
0.0
 30
0.0
  3
*D7
  1

  0
LINE
  5
3834
330
3831
100
AcDbEntity
  8
DIM
440
 16777216
100
AcDbLine
 10
67.9530022938913
 20
216.7263659116845
 30
0.0
 11
32.09977979021216
 21
216.7263659116846
 31
0.0
  0
LINE
  5
3835
330
3831
100
AcDbEntity
  8
DIM
440
 16777216
100
AcDbLine
 10
68.05300229389104
 20
56.72636591168449
 30
0.0
 11
32.09977979021213
 21
56.7263659116845
 31
0.0
  0
LINE
  5
3836
330
3831
100
AcDbEntity
  8
DIM
440
 16777216
100
AcDbLine
 10
33.09977979021216
 20
214.2263659116846
 30
0.0
 11
33.09977979021212
 21
59.2263659116845
 31
0.0
  0
SOLID
  5
3837
330
3831
100
AcDbEntity
  8
DIM
440
 16777216
100
AcDbTrace
 10
32.6831131235455
 20
214.2263659116846
 30
0.0
 11
33.51644645687883
 21
214.2263659116846
 31
0.0
 12
33.09977979021216
 22
216.7263659116846
 32
0.0
 13
33.09977979021216
 23
216.7263659116846
 33
0.0
  0
SOLID
  5
3838
330
3831
100
AcDbEntity
  8
DIM
440
 16777216
100
AcDbTrace
 10
32.68311312354546
 20
59.2263659116845
 30
0.0
 11
33.51644645687879
 21
59.2263659116845
 31
0.0
 12
33.09977979021212
 22
56.7263659116845
 32
0.0
 13
33.09977979021212
 23
56.7263659116845
 33
0.0
  0
MTEXT
  5
3839
330
3831
100
AcDbEntity
  8
DIM
 62
     2
440
 16777216
100
AcDbMText
 10
29.6730880336432
 20
136.7263659116845
 30
0.0
 40
3.5
 41
0.0
 46
0.0
 71
     5
 72
     1
  1
160 [6.299"]
 11
0.0000000000000001
 21
1.0
 31
0.0
 73
     1
 44
1.0
  0
POINT
  5
383A
330
3831
100
AcDbEntity
  8
Defpoints
 62
     0
440
 16777216
100
AcDbPoint
 10
68.9530022938913
 20
216.7263659116845
 30
0.0
  0
POINT
  5
383B
330
3831
100
AcDbEntity
  8
Defpoints
 62
     0
440
 16777216
100
AcDbPoint
 10
69.05300229389104
 20
56.72636591168449
 30
0.0
  0
POINT
  5
383C
330
3831
100
AcDbEntity
  8
Defpoints
 62
     0
440
 16777216
100
AcDbPoint
 10
33.09977979021212
 20
56.7263659116845
 30
0.0
  0
ENDBLK
  5
3833
330
3831
100
AcDbEntity
  8
0
100
AcDbBlockEnd
  0
BLOCK
  5
3850
330
384F
100
AcDbEntity
  8
0
100
AcDbBlockBegin
  2
HD32EX
 70
     0
 10
0.0
 20
0.0
 30
0.0
  3
HD32EX
  1

  0
ARC
  5
435C
102
{ACAD_REACTORS
330
4618
102
}
330
384F
100
AcDbEntity
  8
AM_0
100
AcDbCircle
 10
-49.99999999999968
 20
102.9999999999994
 30
0.0
 40
14.99999999999996
100
AcDbArc
 50
90.0
 51
180.0
  0
ARC
  5
435D
102
{ACAD_REACTORS
330
461E
102
}
330
384F
100
AcDbEntity
  8
AM_0
100
AcDbCircle
 10
-49.99999999999985
 20
-102.9999999999991
 30
0.0
 40
14.99999999999995
100
AcDbArc
 50
180.0
 51
270.0
  0
ARC
  5
435E
330
384F
100
AcDbEntity
  8
AM_0
100
AcDbCircle
 10
50.00000000000007
 20
102.9999999999991
 30
0.0
 40
14.99999999999995
100
AcDbArc
 50
0.0
 51
90.0
  0
ARC
  5
435F
330
384F
100
AcDbEntity
  8
AM_0
100
AcDbCircle
 10
49.99999999999966
 20
-102.9999999999993
 30
0.0
 40
14.99999999999996
100
AcDbArc
 50
270.0
 51
0.0
  0
LINE
  5
4360
330
384F
100
AcDbEntity
  8
AM_0
100
AcDbLine
 10
-64.99999999999984
 20
-102.9999999999991
 30
0.0
 11
-64.99999999999968
 21
102.9999999999995
 31
0.0
  0
LINE
  5
4361
102
{ACAD_REACTORS
330
4618
102
}
330
384F
100
AcDbEntity
  8
AM_0
100
AcDbLine
 10
49.99999999999966
 20
-117.9999999999993
 30
0.0
 11
-49.99999999999997
 21
-117.999999999999
 31
0.0
  0
LINE
  5
4362
102
{ACAD_REACTORS
330
461E
102
}
330
384F
100
AcDbEntity
  8
AM_0
100
AcDbLine
 10
64.99999999999992
 20
102.9999999999991
 30
0.0
 11
64.99999999999966
 21
-102.9999999999994
 31
0.0
  0
LINE
  5
4363
102
{ACAD_REACTORS
330
4618
102
}
330
384F
100
AcDbEntity
  8
AM_0
100
AcDbLine
 10
-49.99999999999968
 20
117.9999999999993
 30
0.0
 11
50.00000000000007
 21
117.999999999999
 31
0.0
  0
LINE
  5
4364
330
384F
100
AcDbEntity
  8
AM_0
100
AcDbLine
 10
-51.42934352571808
 20
91.5289570700702
 30
0.0
 11
-51.07490335719376
 21
91.5289570700702
 31
0.0
  0
LINE
  5
4365
330
384F
100
AcDbEntity
  8
AM_0
100
AcDbLine
 10
-51.07490335719376
 20
91.5289570700702
 30
0.0
 11
-51.07490335719376
 21
89.48803034804448
 31
0.0
  0
LINE
  5
4366
330
384F
100
AcDbEntity
  8
AM_0
100
AcDbLine
 10
-51.07490335719376
 20
89.48803034804448
 30
0.0
 11
-50.05328169497647
 21
89.48803034804448
 31
0.0
  0
LINE
  5
4367
330
384F
100
AcDbEntity
  8
AM_0
100
AcDbLine
 10
-50.05328169497647
 20
89.48803034804448
 30
0.0
 11
-50.05328169497647
 21
91.75366750370987
 31
0.0
  0
LINE
  5
4368
330
384F
100
AcDbEntity
  8
AM_0
100
AcDbLine
 10
-50.05328169497647
 20
91.75366750370987
 30
0.0
 11
-49.69884152645215
 21
91.75366750370987
 31
0.0
  0
LINE
  5
4369
330
384F
100
AcDbEntity
  8
AM_0
100
AcDbLine
 10
-49.69884152645215
 20
91.75366750370987
 30
0.0
 11
-49.69884152645215
 21
88.99922723981822
 31
0.0
  0
LINE
  5
436A
330
384F
100
AcDbEntity
  8
AM_0
100
AcDbLine
 10
-51.42934352571808
 20
89.48803034804448
 30
0.0
 11
-51.42934352571808
 21
91.5289570700702
 31
0.0
  0
LINE
  5
436B
330
384F
100
AcDbEntity
  8
AM_0
100
AcDbLine
 10
-52.34440147713707
 20
89.48803034804448
 30
0.0
 11
-51.42934352571808
 21
89.48803034804448
 31
0.0
  0
LINE
  5
436C
330
384F
100
AcDbEntity
  8
AM_0
100
AcDbLine
 10
-52.34440147713707
 20
91.66795321458971
 30
0.0
 11
-52.34440147713707
 21
89.48803034804448
 31
0.0
  0
LINE
  5
436D
330
384F
100
AcDbEntity
  8
AM_0
100
AcDbLine
 10
-52.69884164566146
 20
91.66795321458971
 30
0.0
 11
-52.34440147713707
 21
91.66795321458971
 31
0.0
  0
LINE
  5
436E
330
384F
100
AcDbEntity
  8
AM_0
100
AcDbLine
 10
-52.69884164566146
 20
88.99922723981822
 30
0.0
 11
-52.69884164566146
 21
91.66795321458971
 31
0.0
  0
LINE
  5
436F
330
384F
100
AcDbEntity
  8
AM_0
100
AcDbLine
 10
-49.69884152645215
 20
88.99922723981822
 30
0.0
 11
-52.69884164566146
 21
88.99922723981822
 31
0.0
  0
LINE
  5
4370
330
384F
100
AcDbEntity
  8
AM_0
100
AcDbLine
 10
-39.87765189246918
 20
106.7441436549682
 30
0.0
 11
-40.02300888189828
 21
106.92438632186
 31
0.0
  0
LINE
  5
4371
330
384F
100
AcDbEntity
  8
AM_0
100
AcDbLine
 10
-40.02300888189828
 20
106.92438632186
 30
0.0
 11
-40.17999443048168
 21
107.0871861500208
 31
0.0
  0
LINE
  5
4372
330
384F
100
AcDbEntity
  8
AM_0
100
AcDbLine
 10
-40.17999443048168
 20
107.0871861500208
 30
0.0
 11
-40.34860853821947
 21
107.2383574190269
 31
0.0
  0
LINE
  5
4373
330
384F
100
AcDbEntity
  8
AM_0
100
AcDbLine
 10
-40.34860853821947
 20
107.2383574190269
 30
0.0
 11
-40.53466548468898
 21
107.377900128879
 31
0.0
  0
LINE
  5
4374
330
384F
100
AcDbEntity
  8
AM_0
100
AcDbLine
 10
-40.53466548468898
 20
107.377900128879
 30
0.0
 11
-40.72653671073536
 21
107.4999999999995
 31
0.0
  0
LINE
  5
4375
330
384F
100
AcDbEntity
  8
AM_0
100
AcDbLine
 10
-40.72653671073536
 20
107.4999999999995
 30
0.0
 11
-40.09278023682425
 21
107.4999999999995
 31
0.0
  0
LINE
  5
4376
330
384F
100
AcDbEntity
  8
AM_0
100
AcDbLine
 10
-40.09278023682425
 20
107.4999999999995
 30
0.0
 11
-39.90672329035516
 21
107.3313858922616
 31
0.0
  0
LINE
  5
4377
330
384F
100
AcDbEntity
  8
AM_0
100
AcDbLine
 10
-39.90672329035516
 20
107.3313858922616
 30
0.0
 11
-39.80488868699337
 21
107.2334785405929
 31
0.0
  0
LINE
  5
4378
330
384F
100
AcDbEntity
  8
AM_0
100
AcDbLine
 10
-39.80488868699337
 20
107.2334785405929
 30
0.0
 11
-39.56949507487948
 21
106.9476434401688
 31
0.0
  0
LINE
  5
4379
330
384F
100
AcDbEntity
  8
AM_0
100
AcDbLine
 10
-39.56949507487948
 20
106.9476434401688
 30
0.0
 11
-39.42995236502748
 21
106.738329375391
 31
0.0
  0
LINE
  5
437A
330
384F
100
AcDbEntity
  8
AM_0
100
AcDbLine
 10
-39.42995236502748
 20
106.738329375391
 30
0.0
 11
-39.30203821432988
 21
106.5173867514585
 31
0.0
  0
LINE
  5
437B
330
384F
100
AcDbEntity
  8
AM_0
100
AcDbLine
 10
-39.30203821432988
 20
106.5173867514585
 30
0.0
 11
-39.19156690236358
 21
106.284815568372
 31
0.0
  0
LINE
  5
437C
330
384F
100
AcDbEntity
  8
AM_0
100
AcDbLine
 10
-39.19156690236358
 20
106.284815568372
 30
0.0
 11
-39.10435270870605
 21
106.0464301057083
 31
0.0
  0
LINE
  5
437D
330
384F
100
AcDbEntity
  8
AM_0
100
AcDbLine
 10
-39.10435270870605
 20
106.0464301057083
 30
0.0
 11
-39.02876707420316
 21
105.7964160838903
 31
0.0
  0
LINE
  5
437E
330
384F
100
AcDbEntity
  8
AM_0
100
AcDbLine
 10
-39.02876707420316
 20
105.7964160838903
 30
0.0
 11
-38.97643855800865
 21
105.5347735029178
 31
0.0
  0
LINE
  5
437F
330
384F
100
AcDbEntity
  8
AM_0
100
AcDbLine
 10
-38.97643855800865
 20
105.5347735029178
 30
0.0
 11
-38.94736716012268
 21
105.2731309219453
 31
0.0
  0
LINE
  5
4380
330
384F
100
AcDbEntity
  8
AM_0
100
AcDbLine
 10
-38.94736716012268
 20
105.2731309219453
 30
0.0
 11
-38.93573860096859
 21
104.9998597818187
 31
0.0
  0
LINE
  5
4381
330
384F
100
AcDbEntity
  8
AM_0
100
AcDbLine
 10
-38.93573860096859
 20
104.9998597818187
 30
0.0
 11
-38.94736716012268
 21
104.6103030501485
 31
0.0
  0
LINE
  5
4382
330
384F
100
AcDbEntity
  8
AM_0
100
AcDbLine
 10
-38.94736716012268
 20
104.6103030501485
 30
0.0
 11
-39.02876707420316
 21
104.2033034797471
 31
0.0
  0
LINE
  5
4383
330
384F
100
AcDbEntity
  8
AM_0
100
AcDbLine
 10
-39.02876707420316
 20
104.2033034797471
 30
0.0
 11
-39.10435270870605
 21
103.9532894579291
 31
0.0
  0
LINE
  5
4384
330
384F
100
AcDbEntity
  8
AM_0
100
AcDbLine
 10
-39.10435270870605
 20
103.9532894579291
 30
0.0
 11
-39.19156690236358
 21
103.7149039952652
 31
0.0
  0
LINE
  5
4385
330
384F
100
AcDbEntity
  8
AM_0
100
AcDbLine
 10
-39.19156690236358
 20
103.7149039952652
 30
0.0
 11
-39.30203821432988
 21
103.4823328121788
 31
0.0
  0
LINE
  5
4386
330
384F
100
AcDbEntity
  8
AM_0
100
AcDbLine
 10
-39.30203821432988
 20
103.4823328121788
 30
0.0
 11
-39.42995236502748
 21
103.2613901882463
 31
0.0
  0
LINE
  5
4387
330
384F
100
AcDbEntity
  8
AM_0
100
AcDbLine
 10
-39.42995236502748
 20
103.2613901882463
 30
0.0
 11
-39.57530935445638
 21
103.0520761234683
 31
0.0
  0
LINE
  5
4388
330
384F
100
AcDbEntity
  8
AM_0
100
AcDbLine
 10
-39.74973774177178
 20
106.5580867084987
 30
0.0
 11
-39.87765189246918
 21
106.7441436549682
 31
0.0
  0
LINE
  5
4389
330
384F
100
AcDbEntity
  8
AM_0
100
AcDbLine
 10
-39.63345215022826
 20
106.3604012028751
 30
0.0
 11
-39.74973774177178
 21
106.5580867084987
 31
0.0
  0
LINE
  5
438A
330
384F
100
AcDbEntity
  8
AM_0
100
AcDbLine
 10
-39.53460939741649
 20
106.1510871380973
 30
0.0
 11
-39.63345215022826
 21
106.3604012028751
 31
0.0
  0
LINE
  5
438B
330
384F
100
AcDbEntity
  8
AM_0
100
AcDbLine
 10
-39.44739520375896
 20
105.9359587937423
 30
0.0
 11
-39.53460939741649
 21
106.1510871380973
 31
0.0
  0
LINE
  5
438C
330
384F
100
AcDbEntity
  8
AM_0
100
AcDbLine
 10
-39.38343812841001
 20
105.71501616981
 30
0.0
 11
-39.44739520375896
 21
105.9359587937423
 31
0.0
  0
LINE
  5
438D
330
384F
100
AcDbEntity
  8
AM_0
100
AcDbLine
 10
-39.33692389179288
 20
105.4824449867233
 30
0.0
 11
-39.38343812841001
 21
105.71501616981
 31
0.0
  0
LINE
  5
438E
330
384F
100
AcDbEntity
  8
AM_0
100
AcDbLine
 10
-39.30785249390709
 20
105.2440595240595
 30
0.0
 11
-39.33692389179288
 21
105.4824449867233
 31
0.0
  0
LINE
  5
438F
330
384F
100
AcDbEntity
  8
AM_0
100
AcDbLine
 10
-39.29622393475248
 20
104.9998597818187
 30
0.0
 11
-39.30785249390709
 21
105.2440595240595
 31
0.0
  0
LINE
  5
4390
330
384F
100
AcDbEntity
  8
AM_0
100
AcDbLine
 10
-39.30785249390709
 20
104.7556600395777
 30
0.0
 11
-39.29622393475248
 21
104.9998597818187
 31
0.0
  0
LINE
  5
4391
330
384F
100
AcDbEntity
  8
AM_0
100
AcDbLine
 10
-39.33692389179288
 20
104.5172745769141
 30
0.0
 11
-39.30785249390709
 21
104.7556600395777
 31
0.0
  0
LINE
  5
4392
330
384F
100
AcDbEntity
  8
AM_0
100
AcDbLine
 10
-39.38343812841001
 20
104.2847033938275
 30
0.0
 11
-39.33692389179288
 21
104.5172745769141
 31
0.0
  0
LINE
  5
4393
330
384F
100
AcDbEntity
  8
AM_0
100
AcDbLine
 10
-39.44739520375896
 20
104.0637607698953
 30
0.0
 11
-39.38343812841001
 21
104.2847033938275
 31
0.0
  0
LINE
  5
4394
330
384F
100
AcDbEntity
  8
AM_0
100
AcDbLine
 10
-39.52879511783937
 20
103.8428181459628
 30
0.0
 11
-39.44739520375896
 21
104.0637607698953
 31
0.0
  0
LINE
  5
4395
330
384F
100
AcDbEntity
  8
AM_0
100
AcDbLine
 10
-39.62763787065086
 20
103.6393183607623
 30
0.0
 11
-39.52879511783937
 21
103.8428181459628
 31
0.0
  0
LINE
  5
4396
330
384F
100
AcDbEntity
  8
AM_0
100
AcDbLine
 10
-39.74392346219437
 20
103.4416328551385
 30
0.0
 11
-39.62763787065086
 21
103.6393183607623
 31
0.0
  0
LINE
  5
4397
330
384F
100
AcDbEntity
  8
AM_0
100
AcDbLine
 10
-39.87765189246918
 20
103.2497616290922
 30
0.0
 11
-39.74392346219437
 21
103.4416328551385
 31
0.0
  0
LINE
  5
4398
330
384F
100
AcDbEntity
  8
AM_0
100
AcDbLine
 10
-40.01719460232115
 20
103.0753332417771
 30
0.0
 11
-39.87765189246918
 21
103.2497616290922
 31
0.0
  0
LINE
  5
4399
330
384F
100
AcDbEntity
  8
AM_0
100
AcDbLine
 10
-40.17418015090457
 20
102.9125334136166
 30
0.0
 11
-40.01719460232115
 21
103.0753332417771
 31
0.0
  0
LINE
  5
439A
330
384F
100
AcDbEntity
  8
AM_0
100
AcDbLine
 10
-40.34279425864258
 20
102.7613621446103
 30
0.0
 11
-40.17418015090457
 21
102.9125334136166
 31
0.0
  0
LINE
  5
439B
330
384F
100
AcDbEntity
  8
AM_0
100
AcDbLine
 10
-40.52885120511158
 20
102.6218194347584
 30
0.0
 11
-40.34279425864258
 21
102.7613621446103
 31
0.0
  0
LINE
  5
439C
330
384F
100
AcDbEntity
  8
AM_0
100
AcDbLine
 10
-40.72072243115806
 20
102.4997195636379
 30
0.0
 11
-40.52885120511158
 21
102.6218194347584
 31
0.0
  0
LINE
  5
439D
330
384F
100
AcDbEntity
  8
AM_0
100
AcDbLine
 10
-40.09278023682425
 20
102.4997195636379
 30
0.0
 11
-40.72072243115806
 21
102.4997195636379
 31
0.0
  0
LINE
  5
439E
330
384F
100
AcDbEntity
  8
AM_0
100
AcDbLine
 10
-39.90672329035516
 20
102.6683336713756
 30
0.0
 11
-40.09278023682425
 21
102.4997195636379
 31
0.0
  0
LINE
  5
439F
330
384F
100
AcDbEntity
  8
AM_0
100
AcDbLine
 10
-39.73229490304028
 20
102.854390617845
 30
0.0
 11
-39.90672329035516
 21
102.6683336713756
 31
0.0
  0
LINE
  5
43A0
330
384F
100
AcDbEntity
  8
AM_0
100
AcDbLine
 10
-39.57530935445638
 20
103.0520761234683
 30
0.0
 11
-39.73229490304028
 21
102.854390617845
 31
0.0
  0
LINE
  5
43A1
330
384F
100
AcDbEntity
  8
AM_0
100
AcDbLine
 10
-27.33043656494777
 20
105.331273717717
 30
0.0
 11
-27.33043656494777
 21
103.9823608558148
 31
0.0
  0
LINE
  5
43A2
330
384F
100
AcDbEntity
  8
AM_0
100
AcDbLine
 10
-27.33043656494777
 20
103.9823608558148
 30
0.0
 11
-27.12693677974698
 21
103.9823608558148
 31
0.0
  0
LINE
  5
43A3
330
384F
100
AcDbEntity
  8
AM_0
100
AcDbLine
 10
-27.12693677974698
 20
103.9823608558148
 30
0.0
 11
-27.12693677974698
 21
103.528847048796
 31
0.0
  0
LINE
  5
43A4
330
384F
100
AcDbEntity
  8
AM_0
100
AcDbLine
 10
-27.12693677974698
 20
103.528847048796
 30
0.0
 11
-27.74325041492657
 21
103.528847048796
 31
0.0
  0
ARC
  5
43A5
330
384F
100
AcDbEntity
  8
AM_0
100
AcDbCircle
 10
-27.73345836738168
 20
103.982032875396
 30
0.0
 40
0.4532916033044071
100
AcDbArc
 50
169.612840296447
 51
268.7621949373211
  0
LINE
  5
43A6
330
384F
100
AcDbEntity
  8
AM_0
100
AcDbLine
 10
-28.17932138321385
 20
104.063760769895
 30
0.0
 11
-28.17932138321385
 21
105.331273717717
 31
0.0
  0
LINE
  5
43A7
330
384F
100
AcDbEntity
  8
AM_0
100
AcDbLine
 10
-28.17932138321385
 20
105.331273717717
 30
0.0
 11
-28.32467837264287
 21
105.331273717717
 31
0.0
  0
LINE
  5
43A8
330
384F
100
AcDbEntity
  8
AM_0
100
AcDbLine
 10
-27.13856533890127
 20
105.331273717717
 30
0.0
 11
-27.33043656494777
 21
105.331273717717
 31
0.0
  0
LINE
  5
43A9
330
384F
100
AcDbEntity
  8
AM_0
100
AcDbLine
 10
-27.13856533890127
 20
105.790601804313
 30
0.0
 11
-27.13856533890127
 21
105.331273717717
 31
0.0
  0
LINE
  5
43AA
330
384F
100
AcDbEntity
  8
AM_0
100
AcDbLine
 10
-27.33043656494777
 20
105.790601804313
 30
0.0
 11
-27.13856533890127
 21
105.790601804313
 31
0.0
  0
LINE
  5
43AB
330
384F
100
AcDbEntity
  8
AM_0
100
AcDbLine
 10
-27.33043656494777
 20
106.3255155254121
 30
0.0
 11
-27.33043656494777
 21
105.790601804313
 31
0.0
  0
LINE
  5
43AC
330
384F
100
AcDbEntity
  8
AM_0
100
AcDbLine
 10
-28.32467837264287
 20
105.7615304064273
 30
0.0
 11
-27.33043656494777
 21
106.3255155254121
 31
0.0
  0
LINE
  5
43AD
330
384F
100
AcDbEntity
  8
AM_0
100
AcDbLine
 10
-28.32467837264287
 20
105.331273717717
 30
0.0
 11
-28.32467837264287
 21
105.7615304064273
 31
0.0
  0
LINE
  5
43AE
330
384F
100
AcDbEntity
  8
AM_0
100
AcDbLine
 10
-41.76147847547045
 20
107.0871861500208
 30
0.0
 11
-41.97660681982553
 21
107.1220718274838
 31
0.0
  0
LINE
  5
43AF
330
384F
100
AcDbEntity
  8
AM_0
100
AcDbLine
 10
-41.97660681982553
 20
107.1220718274838
 30
0.0
 11
-42.19754944375785
 21
107.133700386638
 31
0.0
  0
LINE
  5
43B0
330
384F
100
AcDbEntity
  8
AM_0
100
AcDbLine
 10
-42.19754944375785
 20
107.133700386638
 30
0.0
 11
-42.19754944375785
 21
107.4999999999995
 31
0.0
  0
LINE
  5
43B1
330
384F
100
AcDbEntity
  8
AM_0
100
AcDbLine
 10
-42.19754944375785
 20
107.4999999999995
 30
0.0
 11
-41.95334970151683
 21
107.4883714408452
 31
0.0
  0
LINE
  5
43B2
330
384F
100
AcDbEntity
  8
AM_0
100
AcDbLine
 10
-41.95334970151683
 20
107.4883714408452
 30
0.0
 11
-41.71496423885307
 21
107.4534857633822
 31
0.0
  0
LINE
  5
43B3
330
384F
100
AcDbEntity
  8
AM_0
100
AcDbLine
 10
-41.71496423885307
 20
107.4534857633822
 30
0.0
 11
-41.48820733534367
 21
107.4011572471876
 31
0.0
  0
LINE
  5
43B4
330
384F
100
AcDbEntity
  8
AM_0
100
AcDbLine
 10
-41.48820733534367
 20
107.4011572471876
 30
0.0
 11
-41.27307899098865
 21
107.3255716126845
 31
0.0
  0
LINE
  5
43B5
330
384F
100
AcDbEntity
  8
AM_0
100
AcDbLine
 10
-41.27307899098865
 20
107.3255716126845
 30
0.0
 11
-41.06376492621075
 21
107.23254313945
 31
0.0
  0
LINE
  5
43B6
330
384F
100
AcDbEntity
  8
AM_0
100
AcDbLine
 10
-41.06376492621075
 20
107.23254313945
 30
0.0
 11
-40.86607942058734
 21
107.1220718274838
 31
0.0
  0
LINE
  5
43B7
330
384F
100
AcDbEntity
  8
AM_0
100
AcDbLine
 10
-40.86607942058734
 20
107.1220718274838
 30
0.0
 11
-40.68002247411786
 21
106.988343397209
 31
0.0
  0
LINE
  5
43B8
330
384F
100
AcDbEntity
  8
AM_0
100
AcDbLine
 10
-40.68002247411786
 20
106.988343397209
 30
0.0
 11
-40.50559408680297
 21
106.8488006873572
 31
0.0
  0
LINE
  5
43B9
330
384F
100
AcDbEntity
  8
AM_0
100
AcDbLine
 10
-40.50559408680297
 20
106.8488006873572
 30
0.0
 11
-40.34279425864258
 21
106.6860008591965
 31
0.0
  0
LINE
  5
43BA
330
384F
100
AcDbEntity
  8
AM_0
100
AcDbLine
 10
-40.34279425864258
 20
106.6860008591965
 30
0.0
 11
-40.15654886960777
 21
106.4635750269877
 31
0.0
  0
LINE
  5
43BB
330
384F
100
AcDbEntity
  8
AM_0
100
AcDbLine
 10
-40.15654886960777
 20
106.4635750269877
 30
0.0
 11
-39.9590518065497
 21
106.1278300197887
 31
0.0
  0
LINE
  5
43BC
330
384F
100
AcDbEntity
  8
AM_0
100
AcDbLine
 10
-39.9590518065497
 20
106.1278300197887
 30
0.0
 11
-39.86602333331484
 21
105.9185159550108
 31
0.0
  0
LINE
  5
43BD
330
384F
100
AcDbEntity
  8
AM_0
100
AcDbLine
 10
-39.86602333331484
 20
105.9185159550108
 30
0.0
 11
-39.79043769881167
 21
105.7033876106556
 31
0.0
  0
LINE
  5
43BE
330
384F
100
AcDbEntity
  8
AM_0
100
AcDbLine
 10
-39.79043769881167
 20
105.7033876106556
 30
0.0
 11
-39.73810918261725
 21
105.4766307071461
 31
0.0
  0
LINE
  5
43BF
330
384F
100
AcDbEntity
  8
AM_0
100
AcDbLine
 10
-39.73810918261725
 20
105.4766307071461
 30
0.0
 11
-39.70322350515426
 21
105.2382452444823
 31
0.0
  0
LINE
  5
43C0
330
384F
100
AcDbEntity
  8
AM_0
100
AcDbLine
 10
-39.70322350515426
 20
105.2382452444823
 30
0.0
 11
-39.69159494599987
 21
104.9998597818187
 31
0.0
  0
LINE
  5
43C1
330
384F
100
AcDbEntity
  8
AM_0
100
AcDbLine
 10
-39.69159494599987
 20
104.9998597818187
 30
0.0
 11
-39.70322350515426
 21
104.7614743191549
 31
0.0
  0
LINE
  5
43C2
330
384F
100
AcDbEntity
  8
AM_0
100
AcDbLine
 10
-39.70322350515426
 20
104.7614743191549
 30
0.0
 11
-39.73810918261725
 21
104.5230888564912
 31
0.0
  0
LINE
  5
43C3
330
384F
100
AcDbEntity
  8
AM_0
100
AcDbLine
 10
-39.73810918261725
 20
104.5230888564912
 30
0.0
 11
-39.79625197838885
 21
104.2963319529816
 31
0.0
  0
LINE
  5
43C4
330
384F
100
AcDbEntity
  8
AM_0
100
AcDbLine
 10
-39.79625197838885
 20
104.2963319529816
 30
0.0
 11
-39.86602333331484
 21
104.0812036086265
 31
0.0
  0
LINE
  5
43C5
330
384F
100
AcDbEntity
  8
AM_0
100
AcDbLine
 10
-39.86602333331484
 20
104.0812036086265
 30
0.0
 11
-39.96486608612669
 21
103.8718895438485
 31
0.0
  0
LINE
  5
43C6
330
384F
100
AcDbEntity
  8
AM_0
100
AcDbLine
 10
-39.96486608612669
 20
103.8718895438485
 30
0.0
 11
-40.07533739809274
 21
103.6742040382252
 31
0.0
  0
LINE
  5
43C7
330
384F
100
AcDbEntity
  8
AM_0
100
AcDbLine
 10
-40.07533739809274
 20
103.6742040382252
 30
0.0
 11
-40.20325154879055
 21
103.4881470917558
 31
0.0
  0
LINE
  5
43C8
330
384F
100
AcDbEntity
  8
AM_0
100
AcDbLine
 10
-40.20325154879055
 20
103.4881470917558
 30
0.0
 11
-40.34860853821947
 21
103.3137187044409
 31
0.0
  0
LINE
  5
43C9
330
384F
100
AcDbEntity
  8
AM_0
100
AcDbLine
 10
-40.34860853821947
 20
103.3137187044409
 30
0.0
 11
-40.50559408680297
 21
103.1509188762804
 31
0.0
  0
LINE
  5
43CA
330
384F
100
AcDbEntity
  8
AM_0
100
AcDbLine
 10
-40.50559408680297
 20
103.1509188762804
 30
0.0
 11
-40.68002247411786
 21
103.0055618868512
 31
0.0
  0
LINE
  5
43CB
330
384F
100
AcDbEntity
  8
AM_0
100
AcDbLine
 10
-40.68002247411786
 20
103.0055618868512
 30
0.0
 11
-40.86607942058734
 21
102.8776477361535
 31
0.0
  0
LINE
  5
43CC
330
384F
100
AcDbEntity
  8
AM_0
100
AcDbLine
 10
-40.86607942058734
 20
102.8776477361535
 30
0.0
 11
-41.06376492621075
 21
102.7671764241875
 31
0.0
  0
LINE
  5
43CD
330
384F
100
AcDbEntity
  8
AM_0
100
AcDbLine
 10
-41.06376492621075
 20
102.7671764241875
 30
0.0
 11
-41.27307899098865
 21
102.674147950953
 31
0.0
  0
LINE
  5
43CE
330
384F
100
AcDbEntity
  8
AM_0
100
AcDbLine
 10
-41.27307899098865
 20
102.674147950953
 30
0.0
 11
-41.49402161492107
 21
102.5985623164496
 31
0.0
  0
LINE
  5
43CF
330
384F
100
AcDbEntity
  8
AM_0
100
AcDbLine
 10
-41.55797869026964
 20
107.0348576338262
 30
0.0
 11
-41.76147847547045
 21
107.0871861500208
 31
0.0
  0
LINE
  5
43D0
330
384F
100
AcDbEntity
  8
AM_0
100
AcDbLine
 10
-41.36029318464614
 20
106.9650862789004
 30
0.0
 11
-41.55797869026964
 21
107.0348576338262
 31
0.0
  0
LINE
  5
43D1
330
384F
100
AcDbEntity
  8
AM_0
100
AcDbLine
 10
-41.17423623817682
 20
106.877872085243
 30
0.0
 11
-41.36029318464614
 21
106.9650862789004
 31
0.0
  0
LINE
  5
43D2
330
384F
100
AcDbEntity
  8
AM_0
100
AcDbLine
 10
-40.99980785086184
 20
106.7674007732767
 30
0.0
 11
-41.17423623817682
 21
106.877872085243
 31
0.0
  0
LINE
  5
43D3
330
384F
100
AcDbEntity
  8
AM_0
100
AcDbLine
 10
-40.83700802270132
 20
106.6453009021561
 30
0.0
 11
-40.99980785086184
 21
106.7674007732767
 31
0.0
  0
LINE
  5
43D4
330
384F
100
AcDbEntity
  8
AM_0
100
AcDbLine
 10
-40.68583675369507
 20
106.5115724718815
 30
0.0
 11
-40.83700802270132
 21
106.6453009021561
 31
0.0
  0
LINE
  5
43D5
330
384F
100
AcDbEntity
  8
AM_0
100
AcDbLine
 10
-40.54629404384309
 20
106.3604012028751
 30
0.0
 11
-40.68583675369507
 21
106.5115724718815
 31
0.0
  0
LINE
  5
43D6
330
384F
100
AcDbEntity
  8
AM_0
100
AcDbLine
 10
-40.42419417272265
 20
106.1917870951375
 30
0.0
 11
-40.54629404384309
 21
106.3604012028751
 31
0.0
  0
LINE
  5
43D7
330
384F
100
AcDbEntity
  8
AM_0
100
AcDbLine
 10
-40.31372286075657
 20
106.0173587078225
 30
0.0
 11
-40.42419417272265
 21
106.1917870951375
 31
0.0
  0
LINE
  5
43D8
330
384F
100
AcDbEntity
  8
AM_0
100
AcDbLine
 10
-40.22650866709907
 20
105.8313017613533
 30
0.0
 11
-40.31372286075657
 21
106.0173587078225
 31
0.0
  0
LINE
  5
43D9
330
384F
100
AcDbEntity
  8
AM_0
100
AcDbLine
 10
-40.09859451640167
 20
105.4301164705288
 30
0.0
 11
-40.22650866709907
 21
105.8313017613533
 31
0.0
  0
LINE
  5
43DA
330
384F
100
AcDbEntity
  8
AM_0
100
AcDbLine
 10
-40.06952311851557
 20
105.2208024057508
 30
0.0
 11
-40.09859451640167
 21
105.4301164705288
 31
0.0
  0
LINE
  5
43DB
330
384F
100
AcDbEntity
  8
AM_0
100
AcDbLine
 10
-40.05789455936127
 20
104.9998597818187
 30
0.0
 11
-40.06952311851557
 21
105.2208024057508
 31
0.0
  0
LINE
  5
43DC
330
384F
100
AcDbEntity
  8
AM_0
100
AcDbLine
 10
-40.06952311851557
 20
104.7789171578865
 30
0.0
 11
-40.05789455936127
 21
104.9998597818187
 31
0.0
  0
LINE
  5
43DD
330
384F
100
AcDbEntity
  8
AM_0
100
AcDbLine
 10
-40.09859451640167
 20
104.5696030931085
 30
0.0
 11
-40.06952311851557
 21
104.7789171578865
 31
0.0
  0
LINE
  5
43DE
330
384F
100
AcDbEntity
  8
AM_0
100
AcDbLine
 10
-40.15092303259613
 20
104.3661033079076
 30
0.0
 11
-40.09859451640167
 21
104.5696030931085
 31
0.0
  0
LINE
  5
43DF
330
384F
100
AcDbEntity
  8
AM_0
100
AcDbLine
 10
-40.22650866709907
 20
104.1684178022843
 30
0.0
 11
-40.15092303259613
 21
104.3661033079076
 31
0.0
  0
LINE
  5
43E0
330
384F
100
AcDbEntity
  8
AM_0
100
AcDbLine
 10
-40.31372286075657
 20
103.9823608558148
 30
0.0
 11
-40.22650866709907
 21
104.1684178022843
 31
0.0
  0
LINE
  5
43E1
330
384F
100
AcDbEntity
  8
AM_0
100
AcDbLine
 10
-40.42419417272265
 20
103.8079324684998
 30
0.0
 11
-40.31372286075657
 21
103.9823608558148
 31
0.0
  0
LINE
  5
43E2
330
384F
100
AcDbEntity
  8
AM_0
100
AcDbLine
 10
-40.54629404384309
 20
103.6393183607623
 30
0.0
 11
-40.42419417272265
 21
103.8079324684998
 31
0.0
  0
LINE
  5
43E3
330
384F
100
AcDbEntity
  8
AM_0
100
AcDbLine
 10
-40.68583675369507
 20
103.4881470917558
 30
0.0
 11
-40.54629404384309
 21
103.6393183607623
 31
0.0
  0
LINE
  5
43E4
330
384F
100
AcDbEntity
  8
AM_0
100
AcDbLine
 10
-40.83700802270132
 20
103.3544186614812
 30
0.0
 11
-40.68583675369507
 21
103.4881470917558
 31
0.0
  0
LINE
  5
43E5
330
384F
100
AcDbEntity
  8
AM_0
100
AcDbLine
 10
-40.99980785086184
 20
103.2323187903606
 30
0.0
 11
-40.83700802270132
 21
103.3544186614812
 31
0.0
  0
LINE
  5
43E6
330
384F
100
AcDbEntity
  8
AM_0
100
AcDbLine
 10
-41.17423623817682
 20
103.1218474783945
 30
0.0
 11
-40.99980785086184
 21
103.2323187903606
 31
0.0
  0
LINE
  5
43E7
330
384F
100
AcDbEntity
  8
AM_0
100
AcDbLine
 10
-41.36029318464614
 20
103.034633284737
 30
0.0
 11
-41.17423623817682
 21
103.1218474783945
 31
0.0
  0
LINE
  5
43E8
330
384F
100
AcDbEntity
  8
AM_0
100
AcDbLine
 10
-41.55797869026964
 20
102.964861929811
 30
0.0
 11
-41.36029318464614
 21
103.034633284737
 31
0.0
  0
LINE
  5
43E9
330
384F
100
AcDbEntity
  8
AM_0
100
AcDbLine
 10
-41.76147847547045
 20
102.9125334136166
 30
0.0
 11
-41.55797869026964
 21
102.964861929811
 31
0.0
  0
LINE
  5
43EA
330
384F
100
AcDbEntity
  8
AM_0
100
AcDbLine
 10
-41.97660681982553
 20
102.8776477361535
 30
0.0
 11
-41.76147847547045
 21
102.9125334136166
 31
0.0
  0
LINE
  5
43EB
330
384F
100
AcDbEntity
  8
AM_0
100
AcDbLine
 10
-42.19754944375785
 20
102.8660191769993
 30
0.0
 11
-41.97660681982553
 21
102.8776477361535
 31
0.0
  0
LINE
  5
43EC
330
384F
100
AcDbEntity
  8
AM_0
100
AcDbLine
 10
-42.19754944375785
 20
102.4997195636379
 30
0.0
 11
-42.19754944375785
 21
102.8660191769993
 31
0.0
  0
LINE
  5
43ED
330
384F
100
AcDbEntity
  8
AM_0
100
AcDbLine
 10
-41.95334970151683
 20
102.5113481227922
 30
0.0
 11
-42.19754944375785
 21
102.4997195636379
 31
0.0
  0
LINE
  5
43EE
330
384F
100
AcDbEntity
  8
AM_0
100
AcDbLine
 10
-41.72077851843048
 20
102.540419520678
 30
0.0
 11
-41.95334970151683
 21
102.5113481227922
 31
0.0
  0
LINE
  5
43EF
330
384F
100
AcDbEntity
  8
AM_0
100
AcDbLine
 10
-41.49402161492107
 20
102.5985623164496
 30
0.0
 11
-41.72077851843048
 21
102.540419520678
 31
0.0
  0
LINE
  5
43F0
330
384F
100
AcDbEntity
  8
AM_0
100
AcDbLine
 10
-30.56317600985134
 20
104.726588641692
 30
0.0
 11
-31.01668981687016
 21
105.7906018043132
 31
0.0
  0
LINE
  5
43F1
330
384F
100
AcDbEntity
  8
AM_0
100
AcDbLine
 10
-31.01668981687016
 20
105.790601804313
 30
0.0
 11
-30.13873360071816
 21
105.790601804313
 31
0.0
  0
LINE
  5
43F2
330
384F
100
AcDbEntity
  8
AM_0
100
AcDbLine
 10
-30.13873360071816
 20
105.790601804313
 30
0.0
 11
-29.82476250355126
 21
105.0638168571673
 31
0.0
  0
LINE
  5
43F3
330
384F
100
AcDbEntity
  8
AM_0
100
AcDbLine
 10
-29.82476250355126
 20
105.0638168571673
 30
0.0
 11
-29.51079140638447
 21
105.790601804313
 31
0.0
  0
LINE
  5
43F4
330
384F
100
AcDbEntity
  8
AM_0
100
AcDbLine
 10
-29.51079140638447
 20
105.790601804313
 30
0.0
 11
-28.69679226558125
 21
105.790601804313
 31
0.0
  0
LINE
  5
43F5
330
384F
100
AcDbEntity
  8
AM_0
100
AcDbLine
 10
-28.69679226558125
 20
105.790601804313
 30
0.0
 11
-29.15030607260036
 21
104.7440314804233
 31
0.0
  0
LINE
  5
43F6
330
384F
100
AcDbEntity
  8
AM_0
100
AcDbLine
 10
-31.08064689221874
 20
103.5521041671046
 30
0.0
 11
-30.56317600985134
 21
104.7265886416918
 31
0.0
  0
LINE
  5
43F7
330
384F
100
AcDbEntity
  8
AM_0
100
AcDbLine
 10
-30.24920491268455
 20
103.5521041671046
 30
0.0
 11
-31.08064689221874
 21
103.5521041671046
 31
0.0
  0
LINE
  5
43F8
330
384F
100
AcDbEntity
  8
AM_0
100
AcDbLine
 10
-29.89453385847724
 20
104.3428461895991
 30
0.0
 11
-30.24920491268455
 21
103.5521041671046
 31
0.0
  0
LINE
  5
43F9
330
384F
100
AcDbEntity
  8
AM_0
100
AcDbLine
 10
-29.53986280427038
 20
103.5521041671046
 30
0.0
 11
-29.89453385847724
 21
104.3428461895991
 31
0.0
  0
LINE
  5
43FA
330
384F
100
AcDbEntity
  8
AM_0
100
AcDbLine
 10
-28.61539235150127
 20
103.5521041671046
 30
0.0
 11
-29.53986280427038
 21
103.5521041671046
 31
0.0
  0
LINE
  5
43FB
330
384F
100
AcDbEntity
  8
AM_0
100
AcDbLine
 10
-29.15030607260036
 20
104.7440314804233
 30
0.0
 11
-28.61539235150127
 21
103.5521041671046
 31
0.0
  0
LINE
  5
43FC
330
384F
100
AcDbEntity
  8
AM_0
100
AcDbLine
 10
-23.70232610879708
 20
105.8080446430445
 30
0.0
 11
-22.52202735463268
 21
105.8080446430445
 31
0.0
  0
LINE
  5
43FD
330
384F
100
AcDbEntity
  8
AM_0
100
AcDbLine
 10
-22.52202735463268
 20
105.8080446430445
 30
0.0
 11
-22.46397917607686
 21
105.806277468686
 31
0.0
  0
LINE
  5
43FE
330
384F
100
AcDbEntity
  8
AM_0
100
AcDbLine
 10
-22.46397917607686
 20
105.806277468686
 30
0.0
 11
-22.37085608562626
 21
105.7847875247358
 31
0.0
  0
LINE
  5
43FF
330
384F
100
AcDbEntity
  8
AM_0
100
AcDbLine
 10
-22.37085608562626
 20
105.7847875247358
 30
0.0
 11
-22.30108473070027
 21
105.7673446860043
 31
0.0
  0
LINE
  5
4400
330
384F
100
AcDbEntity
  8
AM_0
100
AcDbLine
 10
-22.30108473070027
 20
105.7673446860043
 30
0.0
 11
-22.24294193492875
 21
105.7324590085412
 31
0.0
  0
LINE
  5
4401
330
384F
100
AcDbEntity
  8
AM_0
100
AcDbLine
 10
-22.24294193492875
 20
105.7324590085412
 30
0.0
 11
-22.18479913915684
 21
105.6917590515013
 31
0.0
  0
LINE
  5
4402
330
384F
100
AcDbEntity
  8
AM_0
100
AcDbLine
 10
-22.18479913915684
 20
105.6917590515013
 30
0.0
 11
-22.13828490253985
 21
105.6394305353067
 31
0.0
  0
LINE
  5
4403
330
384F
100
AcDbEntity
  8
AM_0
100
AcDbLine
 10
-22.13828490253985
 20
105.6394305353067
 30
0.0
 11
-22.10339922507686
 21
105.5696591803809
 31
0.0
  0
LINE
  5
4404
330
384F
100
AcDbEntity
  8
AM_0
100
AcDbLine
 10
-22.10339922507686
 20
105.5696591803809
 30
0.0
 11
-22.07432782719084
 21
105.4882592663003
 31
0.0
  0
LINE
  5
4405
330
384F
100
AcDbEntity
  8
AM_0
100
AcDbLine
 10
-22.07432782719084
 20
105.4882592663003
 30
0.0
 11
-22.05688498845936
 21
105.3894165134887
 31
0.0
  0
LINE
  5
4406
330
384F
100
AcDbEntity
  8
AM_0
100
AcDbLine
 10
-22.05688498845936
 20
105.3894165134887
 30
0.0
 11
-22.05107070888238
 21
105.2731309219453
 31
0.0
  0
LINE
  5
4407
330
384F
100
AcDbEntity
  8
AM_0
100
AcDbLine
 10
-22.05107070888238
 20
105.2731309219453
 30
0.0
 11
-22.05107070888238
 21
104.8777599106981
 31
0.0
  0
LINE
  5
4408
330
384F
100
AcDbEntity
  8
AM_0
100
AcDbLine
 10
-22.05107070888238
 20
104.8777599106981
 30
0.0
 11
-22.89995552714817
 21
104.8777599106981
 31
0.0
  0
LINE
  5
4409
330
384F
100
AcDbEntity
  8
AM_0
100
AcDbLine
 10
-22.89995552714817
 20
104.8777599106981
 30
0.0
 11
-22.89995552714817
 21
105.087073975476
 31
0.0
  0
LINE
  5
440A
330
384F
100
AcDbEntity
  8
AM_0
100
AcDbLine
 10
-22.89995552714817
 20
105.087073975476
 30
0.0
 11
-22.89829430441196
 21
105.1277739325163
 31
0.0
  0
LINE
  5
440B
330
384F
100
AcDbEntity
  8
AM_0
100
AcDbLine
 10
-22.89829430441196
 20
105.1277739325163
 30
0.0
 11
-22.92321264545709
 21
105.2149881261738
 31
0.0
  0
LINE
  5
440C
330
384F
100
AcDbEntity
  8
AM_0
100
AcDbLine
 10
-22.92321264545709
 20
105.2149881261738
 30
0.0
 11
-22.94646976376549
 21
105.2498738036367
 31
0.0
  0
LINE
  5
440D
330
384F
100
AcDbEntity
  8
AM_0
100
AcDbLine
 10
-22.94646976376549
 20
105.2498738036367
 30
0.0
 11
-22.97554116165151
 21
105.2847594810996
 31
0.0
  0
LINE
  5
440E
330
384F
100
AcDbEntity
  8
AM_0
100
AcDbLine
 10
-22.97554116165151
 20
105.2847594810996
 30
0.0
 11
-23.0046125595371
 21
105.3080165994083
 31
0.0
  0
LINE
  5
440F
330
384F
100
AcDbEntity
  8
AM_0
100
AcDbLine
 10
-23.0046125595371
 20
105.3080165994083
 30
0.0
 11
-23.07438391446309
 21
105.3429022768712
 31
0.0
  0
LINE
  5
4410
330
384F
100
AcDbEntity
  8
AM_0
100
AcDbLine
 10
-23.07438391446309
 20
105.3429022768712
 30
0.0
 11
-23.10926959192608
 21
105.3487165564485
 31
0.0
  0
LINE
  5
4411
330
384F
100
AcDbEntity
  8
AM_0
100
AcDbLine
 10
-23.10926959192608
 20
105.3487165564485
 30
0.0
 11
-23.15578382854346
 21
105.3545308360257
 31
0.0
  0
LINE
  5
4412
330
384F
100
AcDbEntity
  8
AM_0
100
AcDbLine
 10
-23.15578382854346
 20
105.3545308360257
 30
0.0
 11
-23.20811234473786
 21
105.3487165564485
 31
0.0
  0
LINE
  5
4413
330
384F
100
AcDbEntity
  8
AM_0
100
AcDbLine
 10
-23.20811234473786
 20
105.3487165564485
 30
0.0
 11
-23.25296535861895
 21
105.3337655518215
 31
0.0
  0
LINE
  5
4414
330
384F
100
AcDbEntity
  8
AM_0
100
AcDbLine
 10
-23.25296535861895
 20
105.3337655518215
 30
0.0
 11
-23.30695509754986
 21
105.2905737606768
 31
0.0
  0
LINE
  5
4415
330
384F
100
AcDbEntity
  8
AM_0
100
AcDbLine
 10
-23.30695509754986
 20
105.2905737606768
 30
0.0
 11
-23.33602649543548
 21
105.2498738036367
 31
0.0
  0
LINE
  5
4416
330
384F
100
AcDbEntity
  8
AM_0
100
AcDbLine
 10
-23.33602649543548
 20
105.2498738036367
 30
0.0
 11
-23.36509789332135
 21
105.1975452874423
 31
0.0
  0
LINE
  5
4417
330
384F
100
AcDbEntity
  8
AM_0
100
AcDbLine
 10
-23.36509789332135
 20
105.1975452874423
 30
0.0
 11
-23.37672645247586
 21
105.1335882120933
 31
0.0
  0
LINE
  5
4418
330
384F
100
AcDbEntity
  8
AM_0
100
AcDbLine
 10
-23.37672645247586
 20
105.1335882120933
 30
0.0
 11
-23.38254073205283
 21
105.0521882980131
 31
0.0
  0
LINE
  5
4419
330
384F
100
AcDbEntity
  8
AM_0
100
AcDbLine
 10
-23.38254073205283
 20
105.0521882980131
 30
0.0
 11
-23.38254073205283
 21
104.2614462755186
 31
0.0
  0
LINE
  5
441A
330
384F
100
AcDbEntity
  8
AM_0
100
AcDbLine
 10
-23.38254073205283
 20
104.2614462755186
 30
0.0
 11
-23.37672645247586
 21
104.1916749205926
 31
0.0
  0
LINE
  5
441B
330
384F
100
AcDbEntity
  8
AM_0
100
AcDbLine
 10
-23.37672645247586
 20
104.1916749205926
 30
0.0
 11
-23.36509789332135
 21
104.133532124821
 31
0.0
  0
LINE
  5
441C
330
384F
100
AcDbEntity
  8
AM_0
100
AcDbLine
 10
-23.36509789332135
 20
104.133532124821
 30
0.0
 11
-23.33602649543548
 21
104.0812036086265
 31
0.0
  0
LINE
  5
441D
330
384F
100
AcDbEntity
  8
AM_0
100
AcDbLine
 10
-23.33602649543548
 20
104.0812036086265
 30
0.0
 11
-23.30114081797248
 21
104.0346893720092
 31
0.0
  0
LINE
  5
441E
330
384F
100
AcDbEntity
  8
AM_0
100
AcDbLine
 10
-23.30114081797248
 20
104.0346893720092
 30
0.0
 11
-23.25462658135535
 21
104.0056179741235
 31
0.0
  0
LINE
  5
441F
330
384F
100
AcDbEntity
  8
AM_0
100
AcDbLine
 10
-23.25462658135535
 20
104.0056179741235
 30
0.0
 11
-23.20229806516088
 21
103.988175135392
 31
0.0
  0
LINE
  5
4420
330
384F
100
AcDbEntity
  8
AM_0
100
AcDbLine
 10
-23.20229806516088
 20
103.988175135392
 30
0.0
 11
-23.13834098981198
 21
103.9823608558148
 31
0.0
  0
LINE
  5
4421
330
384F
100
AcDbEntity
  8
AM_0
100
AcDbLine
 10
-23.13834098981198
 20
103.9823608558148
 30
0.0
 11
-23.08019819404049
 21
103.988175135392
 31
0.0
  0
LINE
  5
4422
330
384F
100
AcDbEntity
  8
AM_0
100
AcDbLine
 10
-23.08019819404049
 20
103.988175135392
 30
0.0
 11
-23.0453125165775
 21
103.9998036945463
 31
0.0
  0
LINE
  5
4423
330
384F
100
AcDbEntity
  8
AM_0
100
AcDbLine
 10
-23.0453125165775
 20
103.9998036945463
 30
0.0
 11
-23.0104268391145
 21
104.0172465332778
 31
0.0
  0
LINE
  5
4424
330
384F
100
AcDbEntity
  8
AM_0
100
AcDbLine
 10
-23.77791174330017
 20
105.8022303634673
 30
0.0
 11
-23.70232610879708
 21
105.8080446430445
 31
0.0
  0
LINE
  5
4425
330
384F
100
AcDbEntity
  8
AM_0
100
AcDbLine
 10
-23.85349737780317
 20
105.790601804313
 30
0.0
 11
-23.77791174330017
 21
105.8022303634673
 31
0.0
  0
LINE
  5
4426
330
384F
100
AcDbEntity
  8
AM_0
100
AcDbLine
 10
-23.92326873272907
 20
105.7731589655815
 30
0.0
 11
-23.85349737780317
 21
105.790601804313
 31
0.0
  0
LINE
  5
4427
330
384F
100
AcDbEntity
  8
AM_0
100
AcDbLine
 10
-23.99304008765506
 20
105.7499018472729
 30
0.0
 11
-23.92326873272907
 21
105.7731589655815
 31
0.0
  0
LINE
  5
4428
330
384F
100
AcDbEntity
  8
AM_0
100
AcDbLine
 10
-24.07095143398925
 20
105.7109461741058
 30
0.0
 11
-23.99304008765506
 21
105.7499018472729
 31
0.0
  0
LINE
  5
4429
330
384F
100
AcDbEntity
  8
AM_0
100
AcDbLine
 10
-24.15002563623855
 20
105.6219876965753
 30
0.0
 11
-24.07095143398925
 21
105.7109461741058
 31
0.0
  0
LINE
  5
442A
330
384F
100
AcDbEntity
  8
AM_0
100
AcDbLine
 10
-24.18491131370146
 20
105.5580306212265
 30
0.0
 11
-24.15002563623855
 21
105.6219876965753
 31
0.0
  0
LINE
  5
442B
330
384F
100
AcDbEntity
  8
AM_0
100
AcDbLine
 10
-24.21398271158748
 20
105.4766307071461
 30
0.0
 11
-24.18491131370146
 21
105.5580306212265
 31
0.0
  0
LINE
  5
442C
330
384F
100
AcDbEntity
  8
AM_0
100
AcDbLine
 10
-24.22561127074201
 20
105.3836022339115
 30
0.0
 11
-24.21398271158748
 21
105.4766307071461
 31
0.0
  0
LINE
  5
442D
330
384F
100
AcDbEntity
  8
AM_0
100
AcDbLine
 10
-24.23142555031907
 20
105.2731309219453
 30
0.0
 11
-24.22561127074201
 21
105.3836022339115
 31
0.0
  0
LINE
  5
442E
330
384F
100
AcDbEntity
  8
AM_0
100
AcDbLine
 10
-24.23142555031907
 20
104.063760769895
 30
0.0
 11
-24.23142555031907
 21
105.2731309219453
 31
0.0
  0
LINE
  5
442F
330
384F
100
AcDbEntity
  8
AM_0
100
AcDbLine
 10
-24.22561127074201
 20
103.9474751783518
 30
0.0
 11
-24.23142555031907
 21
104.063760769895
 31
0.0
  0
LINE
  5
4430
330
384F
100
AcDbEntity
  8
AM_0
100
AcDbLine
 10
-24.2081684320105
 20
103.8544467051172
 30
0.0
 11
-24.22561127074201
 21
103.9474751783518
 31
0.0
  0
LINE
  5
4431
330
384F
100
AcDbEntity
  8
AM_0
100
AcDbLine
 10
-24.18491131370146
 20
103.7672325114596
 30
0.0
 11
-24.2081684320105
 21
103.8544467051172
 31
0.0
  0
LINE
  5
4432
330
384F
100
AcDbEntity
  8
AM_0
100
AcDbLine
 10
-24.14421135666157
 20
103.703275436111
 30
0.0
 11
-24.18491131370146
 21
103.7672325114596
 31
0.0
  0
LINE
  5
4433
330
384F
100
AcDbEntity
  8
AM_0
100
AcDbLine
 10
-24.09769712004405
 20
103.6509469199164
 30
0.0
 11
-24.14421135666157
 21
103.703275436111
 31
0.0
  0
LINE
  5
4434
330
384F
100
AcDbEntity
  8
AM_0
100
AcDbLine
 10
-24.04536860384957
 20
103.6044326832992
 30
0.0
 11
-24.09769712004405
 21
103.6509469199164
 31
0.0
  0
LINE
  5
4435
330
384F
100
AcDbEntity
  8
AM_0
100
AcDbLine
 10
-23.911640173575
 20
103.5436470331741
 30
0.0
 11
-24.04536860384957
 21
103.6044326832992
 31
0.0
  0
LINE
  5
4436
330
384F
100
AcDbEntity
  8
AM_0
100
AcDbLine
 10
-23.83024025949467
 20
103.5346613283732
 30
0.0
 11
-23.911640173575
 21
103.5436470331741
 31
0.0
  0
LINE
  5
4437
330
384F
100
AcDbEntity
  8
AM_0
100
AcDbLine
 10
-23.74884034541415
 20
103.528847048796
 30
0.0
 11
-23.83024025949467
 21
103.5346613283732
 31
0.0
  0
LINE
  5
4438
330
384F
100
AcDbEntity
  8
AM_0
100
AcDbLine
 10
-22.53947019336417
 20
103.528847048796
 30
0.0
 11
-23.74884034541415
 21
103.528847048796
 31
0.0
  0
LINE
  5
4439
330
384F
100
AcDbEntity
  8
AM_0
100
AcDbLine
 10
-22.46969883843826
 20
103.5346613283732
 30
0.0
 11
-22.53947019336417
 21
103.528847048796
 31
0.0
  0
LINE
  5
443A
330
384F
100
AcDbEntity
  8
AM_0
100
AcDbLine
 10
-22.39992748351216
 20
103.5462898875274
 30
0.0
 11
-22.46969883843826
 21
103.5346613283732
 31
0.0
  0
LINE
  5
443B
330
384F
100
AcDbEntity
  8
AM_0
100
AcDbLine
 10
-22.33597040816326
 20
103.563732726259
 30
0.0
 11
-22.39992748351216
 21
103.5462898875274
 31
0.0
  0
LINE
  5
443C
330
384F
100
AcDbEntity
  8
AM_0
100
AcDbLine
 10
-22.27782761239177
 20
103.5869898445676
 30
0.0
 11
-22.33597040816326
 21
103.563732726259
 31
0.0
  0
LINE
  5
443D
330
384F
100
AcDbEntity
  8
AM_0
100
AcDbLine
 10
-22.21968481661986
 20
103.6218755220306
 30
0.0
 11
-22.27782761239177
 21
103.5869898445676
 31
0.0
  0
LINE
  5
443E
330
384F
100
AcDbEntity
  8
AM_0
100
AcDbLine
 10
-22.17317058000273
 20
103.6625754790705
 30
0.0
 11
-22.21968481661986
 21
103.6218755220306
 31
0.0
  0
LINE
  5
443F
330
384F
100
AcDbEntity
  8
AM_0
100
AcDbLine
 10
-22.1324706229625
 20
103.7149039952652
 30
0.0
 11
-22.17317058000273
 21
103.6625754790705
 31
0.0
  0
LINE
  5
4440
330
384F
100
AcDbEntity
  8
AM_0
100
AcDbLine
 10
-22.09758494549951
 20
103.778861070614
 30
0.0
 11
-22.1324706229625
 21
103.7149039952652
 31
0.0
  0
LINE
  5
4441
330
384F
100
AcDbEntity
  8
AM_0
100
AcDbLine
 10
-22.06851354761386
 20
103.8602609846944
 30
0.0
 11
-22.09758494549951
 21
103.778861070614
 31
0.0
  0
LINE
  5
4442
330
384F
100
AcDbEntity
  8
AM_0
100
AcDbLine
 10
-22.05688498845936
 20
103.953289457929
 30
0.0
 11
-22.06851354761386
 21
103.8602609846944
 31
0.0
  0
LINE
  5
4443
330
384F
100
AcDbEntity
  8
AM_0
100
AcDbLine
 10
-22.05107070888238
 20
104.063760769895
 30
0.0
 11
-22.05688498845936
 21
103.953289457929
 31
0.0
  0
LINE
  5
4444
330
384F
100
AcDbEntity
  8
AM_0
100
AcDbLine
 10
-22.05107070888238
 20
104.453317501565
 30
0.0
 11
-22.05107070888238
 21
104.063760769895
 31
0.0
  0
LINE
  5
4445
330
384F
100
AcDbEntity
  8
AM_0
100
AcDbLine
 10
-22.89995552714817
 20
104.453317501565
 30
0.0
 11
-22.05107070888238
 21
104.453317501565
 31
0.0
  0
LINE
  5
4446
330
384F
100
AcDbEntity
  8
AM_0
100
AcDbLine
 10
-22.89995552714817
 20
104.2614462755186
 30
0.0
 11
-22.89995552714817
 21
104.453317501565
 31
0.0
  0
LINE
  5
4447
330
384F
100
AcDbEntity
  8
AM_0
100
AcDbLine
 10
-22.90576980672557
 20
104.1858606410155
 30
0.0
 11
-22.89995552714817
 21
104.2614462755186
 31
0.0
  0
LINE
  5
4448
330
384F
100
AcDbEntity
  8
AM_0
100
AcDbLine
 10
-22.92321264545709
 20
104.1277178452439
 30
0.0
 11
-22.90576980672557
 21
104.1858606410155
 31
0.0
  0
LINE
  5
4449
330
384F
100
AcDbEntity
  8
AM_0
100
AcDbLine
 10
-22.94646976376549
 20
104.0812036086265
 30
0.0
 11
-22.92321264545709
 21
104.1277178452439
 31
0.0
  0
LINE
  5
444A
330
384F
100
AcDbEntity
  8
AM_0
100
AcDbLine
 10
-22.97554116165151
 20
104.0463179311636
 30
0.0
 11
-22.94646976376549
 21
104.0812036086265
 31
0.0
  0
LINE
  5
444B
330
384F
100
AcDbEntity
  8
AM_0
100
AcDbLine
 10
-23.0104268391145
 20
104.0172465332778
 30
0.0
 11
-22.97554116165151
 21
104.0463179311636
 31
0.0
  0
LINE
  5
444C
330
384F
100
AcDbEntity
  8
AM_0
100
AcDbLine
 10
-25.74895251995901
 20
105.3487165564485
 30
0.0
 11
-25.79546675657628
 21
105.331273717717
 31
0.0
  0
LINE
  5
444D
330
384F
100
AcDbEntity
  8
AM_0
100
AcDbLine
 10
-25.79546675657628
 20
105.331273717717
 30
0.0
 11
-25.84198099319335
 21
105.296388040254
 31
0.0
  0
LINE
  5
444E
330
384F
100
AcDbEntity
  8
AM_0
100
AcDbLine
 10
-25.84198099319335
 20
105.296388040254
 30
0.0
 11
-25.87686667065637
 21
105.2615023627911
 31
0.0
  0
LINE
  5
444F
330
384F
100
AcDbEntity
  8
AM_0
100
AcDbLine
 10
-25.87686667065637
 20
105.2615023627911
 30
0.0
 11
-25.90593806854236
 21
105.2091738465965
 31
0.0
  0
LINE
  5
4450
330
384F
100
AcDbEntity
  8
AM_0
100
AcDbLine
 10
-25.90593806854236
 20
105.2091738465965
 30
0.0
 11
-25.92338090727387
 21
105.1510310508249
 31
0.0
  0
LINE
  5
4451
330
384F
100
AcDbEntity
  8
AM_0
100
AcDbLine
 10
-25.92338090727387
 20
105.1510310508249
 30
0.0
 11
-25.92919518685085
 21
105.081259695899
 31
0.0
  0
LINE
  5
4452
330
384F
100
AcDbEntity
  8
AM_0
100
AcDbLine
 10
-25.92919518685085
 20
105.081259695899
 30
0.0
 11
-25.92919518685085
 21
104.8952027494297
 31
0.0
  0
LINE
  5
4453
330
384F
100
AcDbEntity
  8
AM_0
100
AcDbLine
 10
-25.92919518685085
 20
104.8952027494297
 30
0.0
 11
-25.44079570236909
 21
104.8952027494297
 31
0.0
  0
LINE
  5
4454
330
384F
100
AcDbEntity
  8
AM_0
100
AcDbLine
 10
-25.44079570236909
 20
104.8952027494297
 30
0.0
 11
-25.44079570236909
 21
105.046374018436
 31
0.0
  0
LINE
  5
4455
330
384F
100
AcDbEntity
  8
AM_0
100
AcDbLine
 10
-26.68505153188247
 20
103.703275436111
 30
0.0
 11
-26.72575148892259
 21
103.7672325114596
 31
0.0
  0
LINE
  5
4456
330
384F
100
AcDbEntity
  8
AM_0
100
AcDbLine
 10
-26.72575148892259
 20
103.7672325114596
 30
0.0
 11
-26.75482288680849
 21
103.84863242554
 31
0.0
  0
LINE
  5
4457
330
384F
100
AcDbEntity
  8
AM_0
100
AcDbLine
 10
-26.75482288680849
 20
103.84863242554
 30
0.0
 11
-26.77226572553997
 21
103.9474751783518
 31
0.0
  0
LINE
  5
4458
330
384F
100
AcDbEntity
  8
AM_0
100
AcDbLine
 10
-26.77226572553997
 20
103.9474751783518
 30
0.0
 11
-26.77808000511706
 21
104.063760769895
 31
0.0
  0
LINE
  5
4459
330
384F
100
AcDbEntity
  8
AM_0
100
AcDbLine
 10
-26.77808000511706
 20
104.063760769895
 30
0.0
 11
-26.77808000511706
 21
105.2789452015225
 31
0.0
  0
LINE
  5
445A
330
384F
100
AcDbEntity
  8
AM_0
100
AcDbLine
 10
-26.77808000511706
 20
105.2789452015225
 30
0.0
 11
-26.77226572553997
 21
105.3952307930658
 31
0.0
  0
LINE
  5
445B
330
384F
100
AcDbEntity
  8
AM_0
100
AcDbLine
 10
-26.77226572553997
 20
105.3952307930658
 30
0.0
 11
-26.74900860723147
 21
105.4940735458777
 31
0.0
  0
LINE
  5
445C
330
384F
100
AcDbEntity
  8
AM_0
100
AcDbLine
 10
-26.74900860723147
 20
105.4940735458777
 30
0.0
 11
-26.71993720934546
 21
105.5754734599579
 31
0.0
  0
LINE
  5
445D
330
384F
100
AcDbEntity
  8
AM_0
100
AcDbLine
 10
-26.71993720934546
 20
105.5754734599579
 30
0.0
 11
-26.67342297272808
 21
105.6452448148839
 31
0.0
  0
LINE
  5
445E
330
384F
100
AcDbEntity
  8
AM_0
100
AcDbLine
 10
-26.67342297272808
 20
105.6452448148839
 30
0.0
 11
-26.6210944565336
 21
105.6975733310783
 31
0.0
  0
LINE
  5
445F
330
384F
100
AcDbEntity
  8
AM_0
100
AcDbLine
 10
-26.6210944565336
 20
105.6975733310783
 30
0.0
 11
-26.55713738118507
 21
105.7440875676957
 31
0.0
  0
LINE
  5
4460
330
384F
100
AcDbEntity
  8
AM_0
100
AcDbLine
 10
-26.55713738118507
 20
105.7440875676957
 30
0.0
 11
-26.47573746710458
 21
105.7731589655815
 31
0.0
  0
LINE
  5
4461
330
384F
100
AcDbEntity
  8
AM_0
100
AcDbLine
 10
-26.47573746710458
 20
105.7731589655815
 30
0.0
 11
-26.38852327344708
 21
105.7964160838903
 31
0.0
  0
LINE
  5
4462
330
384F
100
AcDbEntity
  8
AM_0
100
AcDbLine
 10
-26.38852327344708
 20
105.7964160838903
 30
0.0
 11
-26.28968052063527
 21
105.8080446430445
 31
0.0
  0
LINE
  5
4463
330
384F
100
AcDbEntity
  8
AM_0
100
AcDbLine
 10
-26.28968052063527
 20
105.8080446430445
 30
0.0
 11
-25.06286752985358
 21
105.8080446430445
 31
0.0
  0
ARC
  5
4464
330
384F
100
AcDbEntity
  8
AM_0
100
AcDbCircle
 10
-25.01203258549768
 20
105.3966604371293
 30
0.0
 40
0.4145131559361587
100
AcDbArc
 50
358.19474068089
 51
97.04435690989988
  0
LINE
  5
4465
330
384F
100
AcDbEntity
  8
AM_0
100
AcDbLine
 10
-24.59772516368034
 20
105.3836022339115
 30
0.0
 11
-24.59191088410327
 21
105.2789452015225
 31
0.0
  0
LINE
  5
4466
330
384F
100
AcDbEntity
  8
AM_0
100
AcDbLine
 10
-24.59191088410327
 20
105.2789452015225
 30
0.0
 11
-24.59191088410327
 21
104.4416889424109
 31
0.0
  0
LINE
  5
4467
330
384F
100
AcDbEntity
  8
AM_0
100
AcDbLine
 10
-24.59191088410327
 20
104.4416889424109
 30
0.0
 11
-25.92919518685085
 21
104.4416889424109
 31
0.0
  0
LINE
  5
4468
330
384F
100
AcDbEntity
  8
AM_0
100
AcDbLine
 10
-25.92919518685085
 20
104.4416889424109
 30
0.0
 11
-25.92338090727387
 21
104.203303479747
 31
0.0
  0
LINE
  5
4469
330
384F
100
AcDbEntity
  8
AM_0
100
AcDbLine
 10
-25.92338090727387
 20
104.203303479747
 30
0.0
 11
-25.90012378896526
 21
104.1102750065124
 31
0.0
  0
LINE
  5
446A
330
384F
100
AcDbEntity
  8
AM_0
100
AcDbLine
 10
-25.90012378896526
 20
104.1102750065124
 30
0.0
 11
-25.87686667065637
 21
104.0695750494723
 31
0.0
  0
LINE
  5
446B
330
384F
100
AcDbEntity
  8
AM_0
100
AcDbLine
 10
-25.87686667065637
 20
104.0695750494723
 30
0.0
 11
-25.84779527277075
 21
104.0346893720092
 31
0.0
  0
LINE
  5
446C
330
384F
100
AcDbEntity
  8
AM_0
100
AcDbLine
 10
-25.84779527277075
 20
104.0346893720092
 30
0.0
 11
-25.80128103615334
 21
104.0056179741235
 31
0.0
  0
LINE
  5
446D
330
384F
100
AcDbEntity
  8
AM_0
100
AcDbLine
 10
-25.80128103615334
 20
104.0056179741235
 30
0.0
 11
-25.74895251995901
 21
103.988175135392
 31
0.0
  0
LINE
  5
446E
330
384F
100
AcDbEntity
  8
AM_0
100
AcDbLine
 10
-25.74895251995901
 20
103.988175135392
 30
0.0
 11
-25.68499544461
 21
103.9823608558148
 31
0.0
  0
LINE
  5
446F
330
384F
100
AcDbEntity
  8
AM_0
100
AcDbLine
 10
-25.44079570236909
 20
105.046374018436
 30
0.0
 11
-25.44660998194649
 21
105.1219596529391
 31
0.0
  0
LINE
  5
4470
330
384F
100
AcDbEntity
  8
AM_0
100
AcDbLine
 10
-25.44660998194649
 20
105.1219596529391
 30
0.0
 11
-25.45823854110057
 21
105.1859167282879
 31
0.0
  0
LINE
  5
4471
330
384F
100
AcDbEntity
  8
AM_0
100
AcDbLine
 10
-25.45823854110057
 20
105.1859167282879
 30
0.0
 11
-25.48149565940949
 21
105.2382452444823
 31
0.0
  0
LINE
  5
4472
330
384F
100
AcDbEntity
  8
AM_0
100
AcDbLine
 10
-25.48149565940949
 20
105.2382452444823
 30
0.0
 11
-25.51056705729499
 21
105.2847594810996
 31
0.0
  0
LINE
  5
4473
330
384F
100
AcDbEntity
  8
AM_0
100
AcDbLine
 10
-25.51056705729499
 20
105.2847594810996
 30
0.0
 11
-25.55126701433537
 21
105.3138308789855
 31
0.0
  0
LINE
  5
4474
330
384F
100
AcDbEntity
  8
AM_0
100
AcDbLine
 10
-25.55126701433537
 20
105.3138308789855
 30
0.0
 11
-25.59196697137557
 21
105.3370879972943
 31
0.0
  0
LINE
  5
4475
330
384F
100
AcDbEntity
  8
AM_0
100
AcDbLine
 10
-25.59196697137557
 20
105.3370879972943
 30
0.0
 11
-25.63848120799287
 21
105.3487165564485
 31
0.0
  0
LINE
  5
4476
330
384F
100
AcDbEntity
  8
AM_0
100
AcDbLine
 10
-25.63848120799287
 20
105.3487165564485
 30
0.0
 11
-25.69080972418735
 21
105.3545308360257
 31
0.0
  0
LINE
  5
4477
330
384F
100
AcDbEntity
  8
AM_0
100
AcDbLine
 10
-25.69080972418735
 20
105.3545308360257
 30
0.0
 11
-25.74895251995901
 21
105.3487165564485
 31
0.0
  0
LINE
  5
4478
330
384F
100
AcDbEntity
  8
AM_0
100
AcDbLine
 10
-26.63853729526517
 20
103.6451326403392
 30
0.0
 11
-26.68505153188247
 21
103.703275436111
 31
0.0
  0
LINE
  5
4479
330
384F
100
AcDbEntity
  8
AM_0
100
AcDbLine
 10
-26.58620877907066
 20
103.6044326832992
 30
0.0
 11
-26.63853729526517
 21
103.6451326403392
 31
0.0
  0
LINE
  5
447A
330
384F
100
AcDbEntity
  8
AM_0
100
AcDbLine
 10
-26.52225170372208
 20
103.5753612854133
 30
0.0
 11
-26.58620877907066
 21
103.6044326832992
 31
0.0
  0
LINE
  5
447B
330
384F
100
AcDbEntity
  8
AM_0
100
AcDbLine
 10
-26.45248034879609
 20
103.5521041671046
 30
0.0
 11
-26.52225170372208
 21
103.5753612854133
 31
0.0
  0
LINE
  5
447C
330
384F
100
AcDbEntity
  8
AM_0
100
AcDbLine
 10
-26.38270899387015
 20
103.5346613283732
 30
0.0
 11
-26.45248034879609
 21
103.5521041671046
 31
0.0
  0
LINE
  5
447D
330
384F
100
AcDbEntity
  8
AM_0
100
AcDbLine
 10
-26.30130907978966
 20
103.528847048796
 30
0.0
 11
-26.38270899387015
 21
103.5346613283732
 31
0.0
  0
LINE
  5
447E
330
384F
100
AcDbEntity
  8
AM_0
100
AcDbLine
 10
-25.04542469112218
 20
103.528847048796
 30
0.0
 11
-26.30130907978966
 21
103.528847048796
 31
0.0
  0
LINE
  5
447F
330
384F
100
AcDbEntity
  8
AM_0
100
AcDbLine
 10
-24.91460340063588
 20
103.5462898875274
 30
0.0
 11
-25.04542469112218
 21
103.528847048796
 31
0.0
  0
LINE
  5
4480
330
384F
100
AcDbEntity
  8
AM_0
100
AcDbLine
 10
-24.87681058338424
 20
103.563732726259
 30
0.0
 11
-24.91460340063588
 21
103.5462898875274
 31
0.0
  0
LINE
  5
4481
330
384F
100
AcDbEntity
  8
AM_0
100
AcDbLine
 10
-24.83912543797675
 20
103.5744999106612
 30
0.0
 11
-24.87681058338424
 21
103.563732726259
 31
0.0
  0
LINE
  5
4482
330
384F
100
AcDbEntity
  8
AM_0
100
AcDbLine
 10
-24.77796783057224
 20
103.598618403722
 30
0.0
 11
-24.83912543797675
 21
103.5744999106612
 31
0.0
  0
LINE
  5
4483
330
384F
100
AcDbEntity
  8
AM_0
100
AcDbLine
 10
-24.68493935733784
 20
103.6916468769565
 30
0.0
 11
-24.77796783057224
 21
103.598618403722
 31
0.0
  0
LINE
  5
4484
330
384F
100
AcDbEntity
  8
AM_0
100
AcDbLine
 10
-24.64423940029778
 20
103.7614182318825
 30
0.0
 11
-24.68493935733784
 21
103.6916468769565
 31
0.0
  0
LINE
  5
4485
330
384F
100
AcDbEntity
  8
AM_0
100
AcDbLine
 10
-24.61516800241185
 20
103.84863242554
 30
0.0
 11
-24.64423940029778
 21
103.7614182318825
 31
0.0
  0
LINE
  5
4486
330
384F
100
AcDbEntity
  8
AM_0
100
AcDbLine
 10
-24.59772516368034
 20
103.9474751783518
 30
0.0
 11
-24.61516800241185
 21
103.84863242554
 31
0.0
  0
LINE
  5
4487
330
384F
100
AcDbEntity
  8
AM_0
100
AcDbLine
 10
-24.59191088410327
 20
104.0579464903181
 30
0.0
 11
-24.59772516368034
 21
103.9474751783518
 31
0.0
  0
LINE
  5
4488
330
384F
100
AcDbEntity
  8
AM_0
100
AcDbLine
 10
-24.59191088410327
 20
104.2265605980556
 30
0.0
 11
-24.59191088410327
 21
104.0579464903181
 31
0.0
  0
LINE
  5
4489
330
384F
100
AcDbEntity
  8
AM_0
100
AcDbLine
 10
-25.44079570236909
 20
104.2265605980556
 30
0.0
 11
-24.59191088410327
 21
104.2265605980556
 31
0.0
  0
LINE
  5
448A
330
384F
100
AcDbEntity
  8
AM_0
100
AcDbLine
 10
-25.44660998194649
 20
104.1567892431298
 30
0.0
 11
-25.44079570236909
 21
104.2265605980556
 31
0.0
  0
LINE
  5
448B
330
384F
100
AcDbEntity
  8
AM_0
100
AcDbLine
 10
-25.46986710025511
 20
104.1044607269352
 30
0.0
 11
-25.44660998194649
 21
104.1567892431298
 31
0.0
  0
LINE
  5
448C
330
384F
100
AcDbEntity
  8
AM_0
100
AcDbLine
 10
-25.49893849814086
 20
104.063760769895
 30
0.0
 11
-25.46986710025511
 21
104.1044607269352
 31
0.0
  0
LINE
  5
448D
330
384F
100
AcDbEntity
  8
AM_0
100
AcDbLine
 10
-25.53382417560385
 20
104.0346893720092
 30
0.0
 11
-25.49893849814086
 21
104.063760769895
 31
0.0
  0
LINE
  5
448E
330
384F
100
AcDbEntity
  8
AM_0
100
AcDbLine
 10
-25.56870985306685
 20
104.0114322537005
 30
0.0
 11
-25.53382417560385
 21
104.0346893720092
 31
0.0
  0
LINE
  5
448F
330
384F
100
AcDbEntity
  8
AM_0
100
AcDbLine
 10
-25.60940981010697
 20
103.993989414969
 30
0.0
 11
-25.56870985306685
 21
104.0114322537005
 31
0.0
  0
LINE
  5
4490
330
384F
100
AcDbEntity
  8
AM_0
100
AcDbLine
 10
-25.64429548756996
 20
103.988175135392
 30
0.0
 11
-25.60940981010697
 21
103.993989414969
 31
0.0
  0
LINE
  5
4491
330
384F
100
AcDbEntity
  8
AM_0
100
AcDbLine
 10
-25.68499544461
 20
103.9823608558148
 30
0.0
 11
-25.64429548756996
 21
103.988175135392
 31
0.0
  0
LINE
  5
4492
330
384F
100
AcDbEntity
  8
AM_0
100
AcDbLine
 10
-33.55171571251384
 20
103.959103737506
 30
0.0
 11
-33.55752999209119
 21
105.2789452015225
 31
0.0
  0
ARC
  5
4493
330
384F
100
AcDbEntity
  8
AM_0
100
AcDbCircle
 10
-33.11451939979225
 20
105.35828198414
 30
0.0
 40
0.4500585628171648
100
AcDbArc
 50
87.92220705468379
 51
190.1532141872511
  0
LINE
  5
4494
330
384F
100
AcDbEntity
  8
AM_0
100
AcDbLine
 10
-33.09820190549507
 20
105.8080446430445
 30
0.0
 11
-31.81906039851887
 21
105.8080446430445
 31
0.0
  0
ARC
  5
4495
330
384F
100
AcDbEntity
  8
AM_0
100
AcDbCircle
 10
-31.79368922416774
 20
105.3922936311795
 30
0.0
 40
0.4165244294813863
100
AcDbArc
 50
0.4040300223318554
 51
93.49213999072263
  0
LINE
  5
4496
330
384F
100
AcDbEntity
  8
AM_0
100
AcDbLine
 10
-31.37717515065418
 20
105.3952307930658
 30
0.0
 11
-31.37717515065418
 21
103.9532894579291
 31
0.0
  0
LINE
  5
4497
330
384F
100
AcDbEntity
  8
AM_0
100
AcDbLine
 10
-32.34815984004086
 20
104.0056179741235
 30
0.0
 11
-32.30164560342358
 21
104.023060812855
 31
0.0
  0
LINE
  5
4498
330
384F
100
AcDbEntity
  8
AM_0
100
AcDbLine
 10
-32.40048835623529
 20
103.988175135392
 30
0.0
 11
-32.34815984004086
 21
104.0056179741235
 31
0.0
  0
LINE
  5
4499
330
384F
100
AcDbEntity
  8
AM_0
100
AcDbLine
 10
-32.46444543158415
 20
103.9823608558148
 30
0.0
 11
-32.40048835623529
 21
103.988175135392
 31
0.0
  0
LINE
  5
449A
330
384F
100
AcDbEntity
  8
AM_0
100
AcDbLine
 10
-32.52840250693299
 20
103.988175135392
 30
0.0
 11
-32.46444543158415
 21
103.9823608558148
 31
0.0
  0
LINE
  5
449B
330
384F
100
AcDbEntity
  8
AM_0
100
AcDbLine
 10
-32.62724525974477
 20
104.023060812855
 30
0.0
 11
-32.52840250693299
 21
103.988175135392
 31
0.0
  0
LINE
  5
449C
330
384F
100
AcDbEntity
  8
AM_0
100
AcDbLine
 10
-32.67085235657348
 20
104.0666679096837
 30
0.0
 11
-32.62724525974477
 21
104.023060812855
 31
0.0
  0
LINE
  5
449D
330
384F
100
AcDbEntity
  8
AM_0
100
AcDbLine
 10
-32.69120233509358
 20
104.1277178452441
 30
0.0
 11
-32.67085235657348
 21
104.0666679096837
 31
0.0
  0
LINE
  5
449E
330
384F
100
AcDbEntity
  8
AM_0
100
AcDbLine
 10
-32.70864517382506
 20
104.2033034797471
 30
0.0
 11
-32.69120233509358
 21
104.1277178452441
 31
0.0
  0
LINE
  5
449F
330
384F
100
AcDbEntity
  8
AM_0
100
AcDbLine
 10
-32.70864517382506
 20
105.1219596529391
 30
0.0
 11
-32.70864517382506
 21
104.2033034797471
 31
0.0
  0
LINE
  5
44A0
330
384F
100
AcDbEntity
  8
AM_0
100
AcDbLine
 10
-32.69120233509358
 20
105.1975452874423
 30
0.0
 11
-32.70864517382506
 21
105.1219596529391
 31
0.0
  0
LINE
  5
44A1
330
384F
100
AcDbEntity
  8
AM_0
100
AcDbLine
 10
-32.65631665763058
 20
105.2731309219453
 30
0.0
 11
-32.69120233509358
 21
105.1975452874423
 31
0.0
  0
LINE
  5
44A2
330
384F
100
AcDbEntity
  8
AM_0
100
AcDbLine
 10
-32.62724525974477
 20
105.3080165994083
 30
0.0
 11
-32.65631665763058
 21
105.2731309219453
 31
0.0
  0
LINE
  5
44A3
330
384F
100
AcDbEntity
  8
AM_0
100
AcDbLine
 10
-32.58654530270465
 20
105.3370879972943
 30
0.0
 11
-32.62724525974477
 21
105.3080165994083
 31
0.0
  0
LINE
  5
44A4
330
384F
100
AcDbEntity
  8
AM_0
100
AcDbLine
 10
-33.54008715335957
 20
103.8660752642715
 30
0.0
 11
-33.55171571251384
 21
103.959103737506
 31
0.0
  0
ARC
  5
44A5
330
384F
100
AcDbEntity
  8
AM_0
100
AcDbCircle
 10
-33.13493534129825
 20
103.9479925506871
 30
0.0
 40
0.4133502541795431
100
AcDbArc
 50
191.4304844914892
 51
269.4501795705249
  0
LINE
  5
44A6
330
384F
100
AcDbEntity
  8
AM_0
100
AcDbLine
 10
-32.99354487310609
 20
103.528847048796
 30
0.0
 11
-33.13890186253525
 21
103.5346613283732
 31
0.0
  0
LINE
  5
44A7
330
384F
100
AcDbEntity
  8
AM_0
100
AcDbLine
 10
-31.83650323725036
 20
103.528847048796
 30
0.0
 11
-32.99354487310609
 21
103.528847048796
 31
0.0
  0
ARC
  5
44A8
330
384F
100
AcDbEntity
  8
AM_0
100
AcDbCircle
 10
-31.57481070361396
 20
102.3899508840612
 30
0.0
 40
1.168574968159458
100
AcDbArc
 50
98.29866302965756
 51
102.9406475226857
  0
ARC
  5
44A9
330
384F
100
AcDbEntity
  8
AM_0
100
AcDbCircle
 10
-31.80531872013498
 20
103.9702840592483
 30
0.0
 40
0.4284807260096188
100
AcDbArc
 50
278.2986630296559
 51
357.7269119786694
  0
LINE
  5
44AA
330
384F
100
AcDbEntity
  8
AM_0
100
AcDbLine
 10
-32.52840250693299
 20
105.3545308360257
 30
0.0
 11
-32.58654530270465
 21
105.3370879972943
 31
0.0
  0
LINE
  5
44AB
330
384F
100
AcDbEntity
  8
AM_0
100
AcDbLine
 10
-32.40048835623529
 20
105.3545308360257
 30
0.0
 11
-32.52840250693299
 21
105.3545308360257
 31
0.0
  0
LINE
  5
44AC
330
384F
100
AcDbEntity
  8
AM_0
100
AcDbLine
 10
-32.34815984004086
 20
105.3370879972943
 30
0.0
 11
-32.40048835623529
 21
105.3545308360257
 31
0.0
  0
LINE
  5
44AD
330
384F
100
AcDbEntity
  8
AM_0
100
AcDbLine
 10
-32.30164560342358
 20
105.3080165994083
 30
0.0
 11
-32.34815984004086
 21
105.3370879972943
 31
0.0
  0
LINE
  5
44AE
330
384F
100
AcDbEntity
  8
AM_0
100
AcDbLine
 10
-32.27257420553775
 20
105.2731309219453
 30
0.0
 11
-32.30164560342358
 21
105.3080165994083
 31
0.0
  0
LINE
  5
44AF
330
384F
100
AcDbEntity
  8
AM_0
100
AcDbLine
 10
-32.24931708722915
 20
105.2382452444823
 30
0.0
 11
-32.27257420553775
 21
105.2731309219453
 31
0.0
  0
LINE
  5
44B0
330
384F
100
AcDbEntity
  8
AM_0
100
AcDbLine
 10
-32.22605996892037
 20
105.1568453304021
 30
0.0
 11
-32.24931708722915
 21
105.2382452444823
 31
0.0
  0
LINE
  5
44B1
330
384F
100
AcDbEntity
  8
AM_0
100
AcDbLine
 10
-32.22024568934327
 20
105.0638168571675
 30
0.0
 11
-32.22605996892037
 21
105.1568453304021
 31
0.0
  0
LINE
  5
44B2
330
384F
100
AcDbEntity
  8
AM_0
100
AcDbLine
 10
-32.22024568934327
 20
104.2033034797471
 30
0.0
 11
-32.22024568934327
 21
105.0638168571675
 31
0.0
  0
LINE
  5
44B3
330
384F
100
AcDbEntity
  8
AM_0
100
AcDbLine
 10
-32.22605996892037
 20
104.1626035227068
 30
0.0
 11
-32.22024568934327
 21
104.2033034797471
 31
0.0
  0
LINE
  5
44B4
330
384F
100
AcDbEntity
  8
AM_0
100
AcDbLine
 10
-32.23768852807476
 20
104.1277178452441
 30
0.0
 11
-32.22605996892037
 21
104.1626035227068
 31
0.0
  0
LINE
  5
44B5
330
384F
100
AcDbEntity
  8
AM_0
100
AcDbLine
 10
-32.24931708722915
 20
104.0870178882038
 30
0.0
 11
-32.23768852807476
 21
104.1277178452441
 31
0.0
  0
LINE
  5
44B6
330
384F
100
AcDbEntity
  8
AM_0
100
AcDbLine
 10
-32.30164560342358
 20
104.023060812855
 30
0.0
 11
-32.24931708722915
 21
104.0870178882038
 31
0.0
  0
LINE
  5
44B7
330
384F
100
AcDbEntity
  8
AM_0
100
AcDbLine
 10
-40.44163701145414
 20
104.9998597818187
 30
0.0
 11
-40.45326557060849
 21
104.7963599966179
 31
0.0
  0
LINE
  5
44B8
330
384F
100
AcDbEntity
  8
AM_0
100
AcDbLine
 10
-40.45326557060849
 20
104.7963599966179
 30
0.0
 11
-40.48815124807148
 21
104.5986744909944
 31
0.0
  0
LINE
  5
44B9
330
384F
100
AcDbEntity
  8
AM_0
100
AcDbLine
 10
-40.48815124807148
 20
104.5986744909944
 30
0.0
 11
-40.54629404384309
 21
104.4126175445251
 31
0.0
  0
LINE
  5
44BA
330
384F
100
AcDbEntity
  8
AM_0
100
AcDbLine
 10
-40.54629404384309
 20
104.4126175445251
 30
0.0
 11
-40.62187967834646
 21
104.232374877633
 31
0.0
  0
LINE
  5
44BB
330
384F
100
AcDbEntity
  8
AM_0
100
AcDbLine
 10
-40.62187967834646
 20
104.232374877633
 30
0.0
 11
-40.71490815158097
 21
104.0637607698953
 31
0.0
  0
LINE
  5
44BC
330
384F
100
AcDbEntity
  8
AM_0
100
AcDbLine
 10
-40.71490815158097
 20
104.0637607698953
 30
0.0
 11
-40.88262775476835
 21
103.837339305592
 31
0.0
  0
LINE
  5
44BD
330
384F
100
AcDbEntity
  8
AM_0
100
AcDbLine
 10
-40.88262775476835
 20
103.837339305592
 30
0.0
 11
-41.02921468795417
 21
103.6907523724064
 31
0.0
  0
LINE
  5
44BE
330
384F
100
AcDbEntity
  8
AM_0
100
AcDbLine
 10
-41.02921468795417
 20
103.6907523724064
 30
0.0
 11
-41.25563615225714
 21
103.5230327692188
 31
0.0
  0
LINE
  5
44BF
330
384F
100
AcDbEntity
  8
AM_0
100
AcDbLine
 10
-41.25563615225714
 20
103.5230327692188
 30
0.0
 11
-41.42425025999513
 21
103.4300042959843
 31
0.0
  0
LINE
  5
44C0
330
384F
100
AcDbEntity
  8
AM_0
100
AcDbLine
 10
-41.42425025999513
 20
103.4300042959843
 30
0.0
 11
-41.60449292688705
 21
103.3544186614812
 31
0.0
  0
LINE
  5
44C1
330
384F
100
AcDbEntity
  8
AM_0
100
AcDbLine
 10
-41.60449292688705
 20
103.3544186614812
 30
0.0
 11
-41.79636415293344
 21
103.2962758657094
 31
0.0
  0
LINE
  5
44C2
330
384F
100
AcDbEntity
  8
AM_0
100
AcDbLine
 10
-41.79636415293344
 20
103.2962758657094
 30
0.0
 11
-41.99404965855698
 21
103.2672044678236
 31
0.0
  0
LINE
  5
44C3
330
384F
100
AcDbEntity
  8
AM_0
100
AcDbLine
 10
-41.99404965855698
 20
103.2672044678236
 30
0.0
 11
-42.20245094973634
 21
103.2552958226134
 31
0.0
  0
LINE
  5
44C4
330
384F
100
AcDbEntity
  8
AM_0
100
AcDbLine
 10
-42.20245094973634
 20
103.2552958226134
 30
0.0
 11
-42.19754944375785
 21
106.7441436549682
 31
0.0
  0
LINE
  5
44C5
330
384F
100
AcDbEntity
  8
AM_0
100
AcDbLine
 10
-40.45326557060849
 20
105.2033595670193
 30
0.0
 11
-40.44163701145414
 21
104.9998597818187
 31
0.0
  0
LINE
  5
44C6
330
384F
100
AcDbEntity
  8
AM_0
100
AcDbLine
 10
-40.48815124807148
 20
105.401045072643
 30
0.0
 11
-40.45326557060849
 21
105.2033595670193
 31
0.0
  0
LINE
  5
44C7
330
384F
100
AcDbEntity
  8
AM_0
100
AcDbLine
 10
-40.54629404384309
 20
105.5871020191123
 30
0.0
 11
-40.48815124807148
 21
105.401045072643
 31
0.0
  0
LINE
  5
44C8
330
384F
100
AcDbEntity
  8
AM_0
100
AcDbLine
 10
-40.62187967834646
 20
105.7673446860045
 30
0.0
 11
-40.54629404384309
 21
105.5871020191123
 31
0.0
  0
LINE
  5
44C9
330
384F
100
AcDbEntity
  8
AM_0
100
AcDbLine
 10
-40.71490815158084
 20
105.9359587937423
 30
0.0
 11
-40.62187967834646
 21
105.7673446860045
 31
0.0
  0
LINE
  5
44CA
330
384F
100
AcDbEntity
  8
AM_0
100
AcDbLine
 10
-40.82537946354699
 20
106.0929443423255
 30
0.0
 11
-40.71490815158084
 21
105.9359587937423
 31
0.0
  0
LINE
  5
44CB
330
384F
100
AcDbEntity
  8
AM_0
100
AcDbLine
 10
-40.95329361424474
 20
106.2324870521775
 30
0.0
 11
-40.82537946354699
 21
106.0929443423255
 31
0.0
  0
LINE
  5
44CC
330
384F
100
AcDbEntity
  8
AM_0
100
AcDbLine
 10
-41.09865060367375
 20
106.3604012028751
 30
0.0
 11
-40.95329361424474
 21
106.2324870521775
 31
0.0
  0
LINE
  5
44CD
330
384F
100
AcDbEntity
  8
AM_0
100
AcDbLine
 10
-41.25563615225714
 20
106.4766867944186
 30
0.0
 11
-41.09865060367375
 21
106.3604012028751
 31
0.0
  0
LINE
  5
44CE
330
384F
100
AcDbEntity
  8
AM_0
100
AcDbLine
 10
-41.42425025999513
 20
106.569715267653
 30
0.0
 11
-41.25563615225714
 21
106.4766867944186
 31
0.0
  0
LINE
  5
44CF
330
384F
100
AcDbEntity
  8
AM_0
100
AcDbLine
 10
-41.60449292688698
 20
106.6453009021561
 30
0.0
 11
-41.42425025999513
 21
106.569715267653
 31
0.0
  0
LINE
  5
44D0
330
384F
100
AcDbEntity
  8
AM_0
100
AcDbLine
 10
-41.98823537897982
 20
106.7325150958137
 30
0.0
 11
-41.60449292688698
 21
106.6453009021561
 31
0.0
  0
LINE
  5
44D1
330
384F
100
AcDbEntity
  8
AM_0
100
AcDbLine
 10
-42.19754944375785
 20
106.7441436549682
 30
0.0
 11
-41.98823537897982
 21
106.7325150958137
 31
0.0
  0
LINE
  5
44D2
330
384F
100
AcDbEntity
  8
AM_0
100
AcDbLine
 10
-36.20302719970116
 20
103.5521041671046
 30
0.0
 11
-36.20302719970116
 21
106.354586923298
 31
0.0
  0
LINE
  5
44D3
330
384F
100
AcDbEntity
  8
AM_0
100
AcDbLine
 10
-36.20302719970116
 20
106.354586923298
 30
0.0
 11
-34.64480027302073
 21
106.354586923298
 31
0.0
  0
LINE
  5
44D4
330
384F
100
AcDbEntity
  8
AM_0
100
AcDbLine
 10
-34.64480027302073
 20
106.354586923298
 30
0.0
 11
-34.54014324063186
 21
106.3487726437208
 31
0.0
  0
ARC
  5
44D5
330
384F
100
AcDbEntity
  8
AM_0
100
AcDbCircle
 10
-34.56070545363377
 20
105.376037019861
 30
0.0
 40
0.9729529271910497
100
AcDbArc
 50
77.3885146656619
 51
88.7890310962704
  0
ARC
  5
44D6
330
384F
100
AcDbEntity
  8
AM_0
100
AcDbCircle
 10
-34.46010617670146
 20
105.8256689212649
 30
0.0
 40
0.5122045562993458
100
AcDbArc
 50
30.69463155046034
 51
77.38851466568601
  0
ARC
  5
44D7
330
384F
100
AcDbEntity
  8
AM_0
100
AcDbCircle
 10
-35.07981490791909
 20
105.6533993384781
 30
0.0
 40
1.145446527676853
100
AcDbArc
 50
348.1656515277011
 51
22.25048533842141
  0
ARC
  5
44D8
330
384F
100
AcDbEntity
  8
AM_0
100
AcDbCircle
 10
-34.48053710197246
 20
105.4679535920173
 30
0.0
 40
0.5241611053916749
100
AcDbArc
 50
276.8474460233868
 51
354.5848738675544
  0
ARC
  5
44D9
330
384F
100
AcDbEntity
  8
AM_0
100
AcDbCircle
 10
-34.47279254847348
 20
104.4299138540333
 30
0.0
 40
0.5205048101401065
100
AcDbArc
 50
9.013547133516912
 51
83.9621879241311
  0
LINE
  5
44DA
330
384F
100
AcDbEntity
  8
AM_0
100
AcDbLine
 10
-33.95871528291551
 20
104.5114602973369
 30
0.0
 11
-33.94127244418399
 21
104.2963319529816
 31
0.0
  0
LINE
  5
44DB
330
384F
100
AcDbEntity
  8
AM_0
100
AcDbLine
 10
-33.94127244418399
 20
104.2963319529816
 30
0.0
 11
-33.92964388502969
 21
103.883518103003
 31
0.0
  0
ARC
  5
44DC
330
384F
100
AcDbEntity
  8
AM_0
100
AcDbCircle
 10
-35.02232211087771
 20
105.5236990364805
 30
0.0
 40
0.2412205143335892
100
AcDbArc
 50
27.10812287079054
 51
80.38420165428854
  0
ARC
  5
44DD
330
384F
100
AcDbEntity
  8
AM_0
100
AcDbCircle
 10
-35.05179984342266
 20
105.5086092448205
 30
0.0
 40
0.2743360473706397
100
AcDbArc
 50
332.8918771291931
 51
27.10812287079419
  0
ARC
  5
44DE
330
384F
100
AcDbEntity
  8
AM_0
100
AcDbCircle
 10
-35.06738706101248
 20
105.5165884157297
 30
0.0
 40
0.2918468589049797
100
AcDbArc
 50
276.4984299332755
 51
332.8918771291859
  0
LINE
  5
44DF
330
384F
100
AcDbEntity
  8
AM_0
100
AcDbLine
 10
-35.35414238143497
 20
103.5521041671046
 30
0.0
 11
-36.20302719970116
 21
103.5521041671046
 31
0.0
  0
LINE
  5
44E0
330
384F
100
AcDbEntity
  8
AM_0
100
AcDbLine
 10
-35.35414238143497
 20
104.6742601254975
 30
0.0
 11
-35.35414238143497
 21
103.5521041671046
 31
0.0
  0
LINE
  5
44E1
330
384F
100
AcDbEntity
  8
AM_0
100
AcDbLine
 10
-35.16227115538857
 20
104.6742601254975
 30
0.0
 11
-35.35414238143497
 21
104.6742601254975
 31
0.0
  0
ARC
  5
44E2
330
384F
100
AcDbEntity
  8
AM_0
100
AcDbCircle
 10
-35.10530848566987
 20
104.375976069764
 30
0.0
 40
0.303674371072457
100
AcDbArc
 50
11.37596594780692
 51
100.8114800752612
  0
LINE
  5
44E3
330
384F
100
AcDbEntity
  8
AM_0
100
AcDbLine
 10
-34.78434298287278
 20
104.0812036086265
 30
0.0
 11
-34.80760010118169
 21
104.4358746628336
 31
0.0
  0
LINE
  5
44E4
330
384F
100
AcDbEntity
  8
AM_0
100
AcDbLine
 10
-34.77271442371868
 20
103.8777038234258
 30
0.0
 11
-34.78434298287278
 21
104.0812036086265
 31
0.0
  0
LINE
  5
44E5
330
384F
100
AcDbEntity
  8
AM_0
100
AcDbLine
 10
-34.73782874625576
 20
103.6160612424534
 30
0.0
 11
-34.77271442371868
 21
103.8777038234258
 31
0.0
  0
LINE
  5
44E6
330
384F
100
AcDbEntity
  8
AM_0
100
AcDbLine
 10
-34.72038590752419
 20
103.5521041671046
 30
0.0
 11
-34.73782874625576
 21
103.6160612424534
 31
0.0
  0
LINE
  5
44E7
330
384F
100
AcDbEntity
  8
AM_0
100
AcDbLine
 10
-33.85987253010367
 20
103.5521041671046
 30
0.0
 11
-34.72038590752419
 21
103.5521041671046
 31
0.0
  0
ARC
  5
44E8
330
384F
100
AcDbEntity
  8
AM_0
100
AcDbCircle
 10
-32.29292418405709
 20
104.0550393505295
 30
0.0
 40
1.64568250823318
100
AcDbArc
 50
185.9825169258584
 51
197.7947991533931
  0
LINE
  5
44E9
330
384F
100
AcDbEntity
  8
AM_0
100
AcDbLine
 10
-35.35414238143497
 20
105.226616685328
 30
0.0
 11
-35.03435700469109
 21
105.226616685328
 31
0.0
  0
LINE
  5
44EA
330
384F
100
AcDbEntity
  8
AM_0
100
AcDbLine
 10
-35.35414238143497
 20
105.7789732451588
 30
0.0
 11
-35.35414238143497
 21
105.226616685328
 31
0.0
  0
LINE
  5
44EB
330
384F
100
AcDbEntity
  8
AM_0
100
AcDbLine
 10
-35.0866855208856
 20
105.7789732451588
 30
0.0
 11
-35.35414238143497
 21
105.7789732451588
 31
0.0
  0
ARC
  5
44EC
330
384F
100
AcDbEntity
  8
AM_0
100
AcDbCircle
 10
-38.29023334796957
 20
86.23499376612398
 30
0.0
 40
19.80479367621275
100
AcDbArc
 50
80.38420165431423
 51
80.69115392963238
  0
LINE
  5
44ED
330
384F
100
AcDbEntity
  8
AM_0
100
AcDbLine
 10
-38.54036758972135
 20
104.7382172008463
 30
0.0
 11
-38.52873903056675
 21
104.9998597818187
 31
0.0
  0
LINE
  5
44EE
330
384F
100
AcDbEntity
  8
AM_0
100
AcDbLine
 10
-38.52873903056675
 20
104.9998597818187
 30
0.0
 11
-38.54036758972135
 21
105.2615023627911
 31
0.0
  0
LINE
  5
44EF
330
384F
100
AcDbEntity
  8
AM_0
100
AcDbLine
 10
-38.54036758972135
 20
105.2615023627911
 30
0.0
 11
-38.56943898760716
 21
105.5173306641863
 31
0.0
  0
LINE
  5
44F0
330
384F
100
AcDbEntity
  8
AM_0
100
AcDbLine
 10
-38.56943898760716
 20
105.5173306641863
 30
0.0
 11
-38.61013894464736
 21
105.7673446860045
 31
0.0
  0
LINE
  5
44F1
330
384F
100
AcDbEntity
  8
AM_0
100
AcDbLine
 10
-38.61013894464736
 20
105.7673446860045
 30
0.0
 11
-38.67409601999617
 21
106.0115444282453
 31
0.0
  0
LINE
  5
44F2
330
384F
100
AcDbEntity
  8
AM_0
100
AcDbLine
 10
-38.67409601999617
 20
106.0115444282453
 30
0.0
 11
-38.74968165449926
 21
106.249929890909
 31
0.0
  0
LINE
  5
44F3
330
384F
100
AcDbEntity
  8
AM_0
100
AcDbLine
 10
-38.74968165449926
 20
106.249929890909
 30
0.0
 11
-38.84271012773366
 21
106.4825010739956
 31
0.0
  0
LINE
  5
44F4
330
384F
100
AcDbEntity
  8
AM_0
100
AcDbLine
 10
-38.84271012773366
 20
106.4825010739956
 30
0.0
 11
-38.94736716012268
 21
106.7034436979279
 31
0.0
  0
LINE
  5
44F5
330
384F
100
AcDbEntity
  8
AM_0
100
AcDbLine
 10
-38.94736716012268
 20
106.7034436979279
 30
0.0
 11
-39.06946703124305
 21
106.9185720422832
 31
0.0
  0
LINE
  5
44F6
330
384F
100
AcDbEntity
  8
AM_0
100
AcDbLine
 10
-39.06946703124305
 20
106.9185720422832
 30
0.0
 11
-39.20319546151805
 21
107.1220718274838
 31
0.0
  0
LINE
  5
44F7
330
384F
100
AcDbEntity
  8
AM_0
100
AcDbLine
 10
-39.20319546151805
 20
107.1220718274838
 30
0.0
 11
-39.34855245094695
 21
107.3139430535302
 31
0.0
  0
LINE
  5
44F8
330
384F
100
AcDbEntity
  8
AM_0
100
AcDbLine
 10
-39.34855245094695
 20
107.3139430535302
 30
0.0
 11
-39.51135227910786
 21
107.4999999999995
 31
0.0
  0
LINE
  5
44F9
330
384F
100
AcDbEntity
  8
AM_0
100
AcDbLine
 10
-38.56362470802975
 20
104.482388899451
 30
0.0
 11
-38.54036758972135
 21
104.7382172008463
 31
0.0
  0
LINE
  5
44FA
330
384F
100
AcDbEntity
  8
AM_0
100
AcDbLine
 10
-38.61013894464736
 20
104.232374877633
 30
0.0
 11
-38.56362470802975
 21
104.482388899451
 31
0.0
  0
LINE
  5
44FB
330
384F
100
AcDbEntity
  8
AM_0
100
AcDbLine
 10
-38.66828174041876
 20
103.9823608558148
 30
0.0
 11
-38.61013894464736
 21
104.232374877633
 31
0.0
  0
LINE
  5
44FC
330
384F
100
AcDbEntity
  8
AM_0
100
AcDbLine
 10
-38.74386737492219
 20
103.7497896727282
 30
0.0
 11
-38.66828174041876
 21
103.9823608558148
 31
0.0
  0
LINE
  5
44FD
330
384F
100
AcDbEntity
  8
AM_0
100
AcDbLine
 10
-38.83689584815679
 20
103.5172184896418
 30
0.0
 11
-38.74386737492219
 21
103.7497896727282
 31
0.0
  0
LINE
  5
44FE
330
384F
100
AcDbEntity
  8
AM_0
100
AcDbLine
 10
-38.94736716012268
 20
103.2962758657094
 30
0.0
 11
-38.83689584815679
 21
103.5172184896418
 31
0.0
  0
LINE
  5
44FF
330
384F
100
AcDbEntity
  8
AM_0
100
AcDbLine
 10
-39.05356326651747
 20
103.0811475213543
 30
0.0
 11
-38.94736716012268
 21
103.2962758657094
 31
0.0
  0
LINE
  5
4500
330
384F
100
AcDbEntity
  8
AM_0
100
AcDbLine
 10
-39.34855245094695
 20
102.67996223053
 30
0.0
 11
-39.05356326651747
 21
103.0811475213543
 31
0.0
  0
LINE
  5
4501
330
384F
100
AcDbEntity
  8
AM_0
100
AcDbLine
 10
-39.51135227910786
 20
102.4997195636379
 30
0.0
 11
-39.34855245094695
 21
102.67996223053
 31
0.0
  0
LINE
  5
4502
330
384F
100
AcDbEntity
  8
AM_0
100
AcDbLine
 10
-37.60426857779766
 20
102.4997195636379
 30
0.0
 11
-39.51135227910786
 21
102.4997195636379
 31
0.0
  0
LINE
  5
4503
330
384F
100
AcDbEntity
  8
AM_0
100
AcDbLine
 10
-37.60426857779766
 20
107.4999999999995
 30
0.0
 11
-37.60426857779766
 21
102.4997195636379
 31
0.0
  0
LINE
  5
4504
330
384F
100
AcDbEntity
  8
AM_0
100
AcDbLine
 10
-39.51135227910786
 20
107.4999999999995
 30
0.0
 11
-37.60426857779766
 21
107.4999999999995
 31
0.0
  0
LINE
  5
4505
330
384F
100
AcDbEntity
  8
AM_0
100
AcDbLine
 10
49.69884152645249
 20
94.4386116883
 30
0.0
 11
52.69884164566184
 21
95.41621790475284
 31
0.0
  0
LINE
  5
4506
330
384F
100
AcDbEntity
  8
AM_0
100
AcDbLine
 10
52.69884164566184
 20
95.41621790475284
 30
0.0
 11
52.69884164566184
 21
94.9181483868918
 31
0.0
  0
LINE
  5
4507
330
384F
100
AcDbEntity
  8
AM_0
100
AcDbLine
 10
52.69884164566184
 20
94.9181483868918
 30
0.0
 11
50.73204620071299
 21
94.35521400158853
 31
0.0
  0
SPLINE
  5
4508
330
384F
100
AcDbEntity
  8
AM_0
100
AcDbSpline
210
0.0
220
0.0
230
1.0
 70
     8
 71
     2
 72
     6
 73
     3
 74
     0
 42
0.000000001
 43
0.0000000001
 40
0.0
 40
0.0
 40
0.0
 40
1.0
 40
1.0
 40
1.0
 10
50.73204620071299
 20
94.35521400158853
 30
0.0
 10
50.42857128517903
 20
94.26718311005954
 30
0.0
 10
50.11814656241916
 20
94.19768503779982
 30
0.0
  0
LINE
  5
4509
330
384F
100
AcDbEntity
  8
AM_0
100
AcDbLine
 10
50.11814656241916
 20
94.19768503779982
 30
0.0
 11
50.67181453808792
 21
94.0332062667854
 31
0.0
  0
LINE
  5
450A
330
384F
100
AcDbEntity
  8
AM_0
100
AcDbLine
 10
50.67181453808792
 20
94.0332062667854
 30
0.0
 11
52.69884164566184
 21
93.3266425321454
 31
0.0
  0
LINE
  5
450B
330
384F
100
AcDbEntity
  8
AM_0
100
AcDbLine
 10
52.69884164566184
 20
93.3266425321454
 30
0.0
 11
52.69884164566184
 21
92.74054212275535
 31
0.0
  0
LINE
  5
450C
330
384F
100
AcDbEntity
  8
AM_0
100
AcDbLine
 10
52.69884164566184
 20
92.74054212275535
 30
0.0
 11
51.18146706799223
 21
92.21235677358185
 31
0.0
  0
SPLINE
  5
450D
330
384F
100
AcDbEntity
  8
AM_0
100
AcDbSpline
210
0.0
220
0.0
230
1.0
 70
     8
 71
     2
 72
     6
 73
     3
 74
     0
 42
0.000000001
 43
0.0000000001
 40
0.0
 40
0.0
 40
0.0
 40
1.0
 40
1.0
 40
1.0
 10
51.18146706799223
 20
92.21235677358185
 30
0.0
 10
50.62548248991482
 20
92.01776217125479
 30
0.0
 10
50.11814656241916
 20
91.92046487009115
 30
0.0
  0
LINE
  5
450E
330
384F
100
AcDbEntity
  8
AM_0
100
AcDbLine
 10
49.69884152645249
 20
93.94054217043906
 30
0.0
 11
49.69884152645249
 21
94.4386116883
 31
0.0
  0
LINE
  5
450F
330
384F
100
AcDbEntity
  8
AM_0
100
AcDbLine
 10
51.98532810379571
 20
93.15753055631347
 30
0.0
 11
49.69884152645249
 21
93.94054217043906
 31
0.0
  0
SPLINE
  5
4510
330
384F
100
AcDbEntity
  8
AM_0
100
AcDbSpline
210
0.0
220
0.0
230
1.0
 70
     8
 71
     2
 72
     6
 73
     3
 74
     0
 42
0.000000001
 43
0.0000000001
 40
0.0
 40
0.0
 40
0.0
 40
1.0
 40
1.0
 40
1.0
 10
52.33745166991145
 20
93.04865024310652
 30
0.0
 10
52.14054046517571
 20
93.10193209850565
 30
0.0
 10
51.98532810379571
 20
93.15753055631347
 30
0.0
  0
LINE
  5
4511
330
384F
100
AcDbEntity
  8
AM_0
100
AcDbLine
 10
51.98532810379571
 20
92.93282012267388
 30
0.0
 11
52.33745166991145
 21
93.04865024310652
 31
0.0
  0
LINE
  5
4512
330
384F
100
AcDbEntity
  8
AM_0
100
AcDbLine
 10
49.69884152645249
 20
92.15212511095684
 30
0.0
 11
51.98532810379571
 21
92.93282012267388
 31
0.0
  0
LINE
  5
4513
330
384F
100
AcDbEntity
  8
AM_0
100
AcDbLine
 10
49.69884152645249
 20
91.68185482199964
 30
0.0
 11
49.69884152645249
 21
92.15212511095684
 31
0.0
  0
LINE
  5
4514
330
384F
100
AcDbEntity
  8
AM_0
100
AcDbLine
 10
52.69884164566184
 20
90.66949956941721
 30
0.0
 11
49.69884152645249
 21
91.68185482199982
 31
0.0
  0
LINE
  5
4515
330
384F
100
AcDbEntity
  8
AM_0
100
AcDbLine
 10
52.69884164566184
 20
91.16061928005207
 30
0.0
 11
52.69884164566184
 21
90.66949956941721
 31
0.0
  0
LINE
  5
4516
330
384F
100
AcDbEntity
  8
AM_0
100
AcDbLine
 10
50.77142844166013
 20
91.73976988221602
 30
0.0
 11
52.69884164566184
 21
91.16061928005207
 31
0.0
  0
SPLINE
  5
4517
330
384F
100
AcDbEntity
  8
AM_0
100
AcDbSpline
210
0.0
220
0.0
230
1.0
 70
     8
 71
     2
 72
     6
 73
     3
 74
     0
 42
0.000000001
 43
0.0000000001
 40
0.0
 40
0.0
 40
0.0
 40
1.0
 40
1.0
 40
1.0
 10
50.11814656241916
 20
91.92046487009115
 30
0.0
 10
50.41003846590978
 20
91.85096679783155
 30
0.0
 10
50.77142844166013
 20
91.73976988221602
 30
0.0
  0
LINE
  5
4518
330
384F
100
AcDbEntity
  8
AM_0
100
AcDbLine
 10
51.42934352571835
 20
87.6833990646598
 30
0.0
 11
51.07490335719404
 21
87.6833990646598
 31
0.0
  0
LINE
  5
4519
330
384F
100
AcDbEntity
  8
AM_0
100
AcDbLine
 10
51.07490335719404
 20
87.6833990646598
 30
0.0
 11
51.07490335719404
 21
89.72432578668559
 31
0.0
  0
LINE
  5
451A
330
384F
100
AcDbEntity
  8
AM_0
100
AcDbLine
 10
51.07490335719404
 20
89.72432578668559
 30
0.0
 11
50.05328169497682
 21
89.72432578668559
 31
0.0
  0
LINE
  5
451B
330
384F
100
AcDbEntity
  8
AM_0
100
AcDbLine
 10
50.05328169497682
 20
89.72432578668559
 30
0.0
 11
50.05328169497682
 21
87.45868863102021
 31
0.0
  0
LINE
  5
451C
330
384F
100
AcDbEntity
  8
AM_0
100
AcDbLine
 10
50.05328169497682
 20
87.45868863102021
 30
0.0
 11
49.69884152645249
 21
87.45868863102021
 31
0.0
  0
LINE
  5
451D
330
384F
100
AcDbEntity
  8
AM_0
100
AcDbLine
 10
49.69884152645249
 20
87.45868863102021
 30
0.0
 11
49.69884152645249
 21
90.21312889491197
 31
0.0
  0
LINE
  5
451E
330
384F
100
AcDbEntity
  8
AM_0
100
AcDbLine
 10
51.42934352571835
 20
89.72432578668559
 30
0.0
 11
51.42934352571835
 21
87.6833990646598
 31
0.0
  0
LINE
  5
451F
330
384F
100
AcDbEntity
  8
AM_0
100
AcDbLine
 10
52.34440147713735
 20
89.72432578668559
 30
0.0
 11
51.42934352571835
 21
89.72432578668559
 31
0.0
  0
LINE
  5
4520
330
384F
100
AcDbEntity
  8
AM_0
100
AcDbLine
 10
52.34440147713735
 20
87.54440292014038
 30
0.0
 11
52.34440147713735
 21
89.72432578668559
 31
0.0
  0
LINE
  5
4521
330
384F
100
AcDbEntity
  8
AM_0
100
AcDbLine
 10
52.69884164566184
 20
87.54440292014038
 30
0.0
 11
52.34440147713735
 21
87.54440292014038
 31
0.0
  0
LINE
  5
4522
330
384F
100
AcDbEntity
  8
AM_0
100
AcDbLine
 10
52.69884164566184
 20
90.21312889491197
 30
0.0
 11
52.69884164566184
 21
87.54440292014038
 31
0.0
  0
LINE
  5
4523
330
384F
100
AcDbEntity
  8
AM_0
100
AcDbLine
 10
49.69884152645249
 20
90.21312889491197
 30
0.0
 11
52.69884164566184
 21
90.2131288949119
 31
0.0
  0
LINE
  5
4524
330
384F
100
AcDbEntity
  8
AM_0
100
AcDbLine
 10
49.69884152645249
 20
86.79382373973593
 30
0.0
 11
52.69884164566184
 21
86.79382373973593
 31
0.0
  0
LINE
  5
4525
330
384F
100
AcDbEntity
  8
AM_0
100
AcDbLine
 10
52.69884164566184
 20
86.79382373973593
 30
0.0
 11
52.69884164566171
 21
85.51969241497529
 31
0.0
  0
SPLINE
  5
4526
330
384F
100
AcDbEntity
  8
AM_0
100
AcDbSpline
210
0.0
220
0.0
230
1.0
 70
     8
 71
     2
 72
     6
 73
     3
 74
     0
 42
0.000000001
 43
0.0000000001
 40
0.0
 40
0.0
 40
0.0
 40
1.0
 40
1.0
 40
1.0
 10
52.69884164566184
 20
85.51969241497529
 30
0.0
 10
52.69884164566184
 20
85.0471055236095
 30
0.0
 10
52.643243187854
 20
84.79922906588326
 30
0.0
  0
SPLINE
  5
4527
330
384F
100
AcDbEntity
  8
AM_0
100
AcDbSpline
210
0.0
220
0.0
230
1.0
 70
     8
 71
     2
 72
     6
 73
     3
 74
     0
 42
0.000000001
 43
0.0000000001
 40
0.0
 40
0.0
 40
0.0
 40
1.0
 40
1.0
 40
1.0
 10
52.28416981451232
 20
84.90810937909021
 30
0.0
 10
52.34440147713735
 20
85.10502058382583
 30
0.0
 10
52.34440147713735
 20
85.53127542701849
 30
0.0
  0
SPLINE
  5
4528
330
384F
100
AcDbEntity
  8
AM_0
100
AcDbSpline
210
0.0
220
0.0
230
1.0
 70
     8
 71
     2
 72
     7
 73
     4
 74
     0
 42
0.000000001
 43
0.0000000001
 40
0.0
 40
0.0
 40
0.0
 40
1.0
 40
2.0
 40
2.0
 40
2.0
 10
51.21853270653065
 20
84.24556109021455
 30
0.0
 10
51.67490338103585
 20
84.24556109021455
 30
0.0
 10
52.19613892298344
 20
84.6162174755995
 30
0.0
 10
52.28416981451232
 20
84.90810937909021
 30
0.0
  0
SPLINE
  5
4529
330
384F
100
AcDbEntity
  8
AM_0
100
AcDbSpline
210
0.0
220
0.0
230
1.0
 70
     8
 71
     2
 72
     6
 73
     3
 74
     0
 42
0.000000001
 43
0.0000000001
 40
0.0
 40
0.0
 40
0.0
 40
1.0
 40
1.0
 40
1.0
 10
50.48880294780417
 20
84.42162287327233
 30
0.0
 10
50.79459446574663
 20
84.24556109021455
 30
0.0
 10
51.21853270653065
 20
84.24556109021455
 30
0.0
  0
LINE
  5
452A
330
384F
100
AcDbEntity
  8
AM_0
100
AcDbLine
 10
49.69884152645249
 20
85.46177735475884
 30
0.0
 11
49.69884152645249
 21
86.79382373973593
 31
0.0
  0
SPLINE
  5
452B
330
384F
100
AcDbEntity
  8
AM_0
100
AcDbSpline
210
0.0
220
0.0
230
1.0
 70
     8
 71
     2
 72
     8
 73
     5
 74
     0
 42
0.000000001
 43
0.0000000001
 40
0.0
 40
0.0
 40
0.0
 40
1.0
 40
2.0
 40
3.0
 40
3.0
 40
3.0
 10
51.216216104122
 20
83.74054176512755
 30
0.0
 10
50.70656357421774
 20
83.74054176512755
 30
0.0
 10
49.99536663476042
 20
84.18996263240684
 30
0.0
 10
49.69884152645249
 20
84.89189316222956
 30
0.0
 10
49.69884152645249
 20
85.46177735475884
 30
0.0
  0
SPLINE
  5
452C
330
384F
100
AcDbEntity
  8
AM_0
100
AcDbSpline
210
0.0
220
0.0
230
1.0
 70
     8
 71
     2
 72
     8
 73
     5
 74
     0
 42
0.000000001
 43
0.0000000001
 40
0.0
 40
0.0
 40
0.0
 40
1.0
 40
2.0
 40
3.0
 40
3.0
 40
3.0
 10
52.643243187854
 20
84.79922906588326
 30
0.0
 10
52.57142851318564
 20
84.47722133108005
 30
0.0
 10
52.19150571816618
 20
84.00463443971437
 30
0.0
 10
51.61235511600215
 20
83.74054176512755
 30
0.0
 10
51.216216104122
 20
83.74054176512755
 30
0.0
  0
SPLINE
  5
452D
330
384F
100
AcDbEntity
  8
AM_0
100
AcDbSpline
210
0.0
220
0.0
230
1.0
 70
     8
 71
     2
 72
     7
 73
     4
 74
     0
 42
0.000000001
 43
0.0000000001
 40
0.0
 40
0.0
 40
0.0
 40
1.0
 40
2.0
 40
2.0
 40
2.0
 10
50.05328169497682
 20
85.51969241497529
 30
0.0
 10
50.05328169497682
 20
85.04247231879224
 30
0.0
 10
50.25945930934715
 20
84.55135260815707
 30
0.0
 10
50.48880294780417
 20
84.42162287327233
 30
0.0
  0
LINE
  5
452E
330
384F
100
AcDbEntity
  8
AM_0
100
AcDbLine
 10
50.0532816949767
 20
86.30502063150954
 30
0.0
 11
50.0532816949767
 21
85.51969241497529
 31
0.0
  0
LINE
  5
452F
330
384F
100
AcDbEntity
  8
AM_0
100
AcDbLine
 10
52.34440147713735
 20
86.30502063150954
 30
0.0
 11
50.0532816949767
 21
86.30502063150954
 31
0.0
  0
LINE
  5
4530
330
384F
100
AcDbEntity
  8
AM_0
100
AcDbLine
 10
52.34440147713735
 20
85.53127542701849
 30
0.0
 11
52.34440147713735
 21
86.30502063150954
 31
0.0
  0
LINE
  5
4531
330
384F
100
AcDbEntity
  8
AM_0
100
AcDbLine
 10
51.42934352571835
 20
76.50810904530421
 30
0.0
 11
51.07490335719404
 21
76.50810904530421
 31
0.0
  0
LINE
  5
4532
330
384F
100
AcDbEntity
  8
AM_0
100
AcDbLine
 10
51.07490335719404
 20
76.50810904530421
 30
0.0
 11
51.07490335719404
 21
78.54903576733001
 31
0.0
  0
LINE
  5
4533
330
384F
100
AcDbEntity
  8
AM_0
100
AcDbLine
 10
51.07490335719404
 20
78.54903576733001
 30
0.0
 11
50.0532816949767
 21
78.54903576733001
 31
0.0
  0
LINE
  5
4534
330
384F
100
AcDbEntity
  8
AM_0
100
AcDbLine
 10
50.0532816949767
 20
78.54903576733001
 30
0.0
 11
50.0532816949767
 21
76.28339861166448
 31
0.0
  0
LINE
  5
4535
330
384F
100
AcDbEntity
  8
AM_0
100
AcDbLine
 10
50.0532816949767
 20
76.28339861166448
 30
0.0
 11
49.69884152645242
 21
76.28339861166448
 31
0.0
  0
LINE
  5
4536
330
384F
100
AcDbEntity
  8
AM_0
100
AcDbLine
 10
49.69884152645242
 20
76.28339861166448
 30
0.0
 11
49.69884152645242
 21
79.03783887555636
 31
0.0
  0
LINE
  5
4537
330
384F
100
AcDbEntity
  8
AM_0
100
AcDbLine
 10
51.42934352571835
 20
78.54903576733001
 30
0.0
 11
51.42934352571835
 21
76.50810904530421
 31
0.0
  0
LINE
  5
4538
330
384F
100
AcDbEntity
  8
AM_0
100
AcDbLine
 10
52.34440147713735
 20
78.54903576733001
 30
0.0
 11
51.42934352571835
 21
78.54903576733001
 31
0.0
  0
LINE
  5
4539
330
384F
100
AcDbEntity
  8
AM_0
100
AcDbLine
 10
52.34440147713735
 20
76.36911290078484
 30
0.0
 11
52.34440147713735
 21
78.54903576733001
 31
0.0
  0
LINE
  5
453A
330
384F
100
AcDbEntity
  8
AM_0
100
AcDbLine
 10
52.69884164566171
 20
76.36911290078484
 30
0.0
 11
52.34440147713735
 21
76.36911290078484
 31
0.0
  0
LINE
  5
453B
330
384F
100
AcDbEntity
  8
AM_0
100
AcDbLine
 10
52.69884164566171
 20
79.03783887555636
 30
0.0
 11
52.69884164566171
 21
76.36911290078484
 31
0.0
  0
LINE
  5
453C
330
384F
100
AcDbEntity
  8
AM_0
100
AcDbLine
 10
49.69884152645242
 20
79.03783887555636
 30
0.0
 11
52.69884164566171
 21
79.03783887555636
 31
0.0
  0
LINE
  5
453D
330
384F
100
AcDbEntity
  8
AM_0
100
AcDbLine
 10
50.87567555004961
 20
81.32200885049092
 30
0.0
 11
51.23011571857393
 21
81.32200885049092
 31
0.0
  0
LINE
  5
453E
330
384F
100
AcDbEntity
  8
AM_0
100
AcDbLine
 10
51.23011571857393
 20
81.32200885049092
 30
0.0
 11
51.23243232098264
 21
79.75830222464828
 31
0.0
  0
LINE
  5
453F
330
384F
100
AcDbEntity
  8
AM_0
100
AcDbLine
 10
51.23243232098264
 20
79.75830222464828
 30
0.0
 11
50.11814656241916
 21
79.75830222464828
 31
0.0
  0
SPLINE
  5
4540
330
384F
100
AcDbEntity
  8
AM_0
100
AcDbSpline
210
0.0
220
0.0
230
1.0
 70
     8
 71
     2
 72
     7
 73
     4
 74
     0
 42
0.000000001
 43
0.0000000001
 40
0.0
 40
0.0
 40
0.0
 40
1.0
 40
2.0
 40
2.0
 40
2.0
 10
50.11814656241916
 20
79.75830222464828
 30
0.0
 10
49.88416971914496
 20
80.11737559798991
 30
0.0
 10
49.64787627346203
 20
80.88417099525498
 30
0.0
 10
49.64787627346203
 20
81.28957641676981
 30
0.0
  0
SPLINE
  5
4541
330
384F
100
AcDbEntity
  8
AM_0
100
AcDbSpline
210
0.0
220
0.0
230
1.0
 70
     8
 71
     2
 72
     8
 73
     5
 74
     0
 42
0.000000001
 43
0.0000000001
 40
0.0
 40
0.0
 40
0.0
 40
1.0
 40
2.0
 40
3.0
 40
3.0
 40
3.0
 10
49.64787627346203
 20
81.28957641676981
 30
0.0
 10
49.64787627346203
 20
81.83166138039519
 30
0.0
 10
50.0092662492123
 20
82.67953786196319
 30
0.0
 10
50.69961376699172
 20
83.17297417500686
 30
0.0
 10
51.18610027280943
 20
83.17297417500686
 30
0.0
  0
SPLINE
  5
4542
330
384F
100
AcDbEntity
  8
AM_0
100
AcDbSpline
210
0.0
220
0.0
230
1.0
 70
     8
 71
     2
 72
     8
 73
     5
 74
     0
 42
0.000000001
 43
0.0000000001
 40
0.0
 40
0.0
 40
0.0
 40
1.0
 40
2.0
 40
3.0
 40
3.0
 40
3.0
 10
51.18610027280943
 20
83.17297417500686
 30
0.0
 10
51.6772199834445
 20
83.17297417500686
 30
0.0
 10
52.40694974217114
 20
82.67490465714587
 30
0.0
 10
52.75212350106085
 20
81.87104362134236
 30
0.0
 10
52.75212350106085
 20
81.32200885049092
 30
0.0
  0
SPLINE
  5
4543
330
384F
100
AcDbEntity
  8
AM_0
100
AcDbSpline
210
0.0
220
0.0
230
1.0
 70
     8
 71
     2
 72
     8
 73
     5
 74
     0
 42
0.000000001
 43
0.0000000001
 40
0.0
 40
0.0
 40
0.0
 40
1.0
 40
2.0
 40
3.0
 40
3.0
 40
3.0
 10
52.75212350106085
 20
81.32200885049092
 30
0.0
 10
52.75212350106085
 20
80.91660342897617
 30
0.0
 10
52.5505790915077
 20
80.30733699549967
 30
0.0
 10
52.18223930853151
 20
79.91351458602825
 30
0.0
 10
51.86023157372837
 20
79.81621728486465
 30
0.0
  0
LINE
  5
4544
330
384F
100
AcDbEntity
  8
AM_0
100
AcDbLine
 10
50.87567555004961
 20
80.23783892324008
 30
0.0
 11
50.87567555004961
 21
81.32200885049092
 31
0.0
  0
LINE
  5
4545
330
384F
100
AcDbEntity
  8
AM_0
100
AcDbLine
 10
50.31737436956354
 20
80.23783892324008
 30
0.0
 11
50.87567555004961
 21
80.23783892324008
 31
0.0
  0
SPLINE
  5
4546
330
384F
100
AcDbEntity
  8
AM_0
100
AcDbSpline
210
0.0
220
0.0
230
1.0
 70
     8
 71
     2
 72
     7
 73
     4
 74
     0
 42
0.000000001
 43
0.0000000001
 40
0.0
 40
0.0
 40
0.0
 40
1.0
 40
2.0
 40
2.0
 40
2.0
 10
50.00694964680359
 20
81.30810923603901
 30
0.0
 10
50.00694964680359
 20
81.02085053736578
 30
0.0
 10
50.18996123708753
 20
80.4162173087065
 30
0.0
 10
50.31737436956354
 20
80.23783892324008
 30
0.0
  0
SPLINE
  5
4547
330
384F
100
AcDbEntity
  8
AM_0
100
AcDbSpline
210
0.0
220
0.0
230
1.0
 70
     8
 71
     2
 72
     7
 73
     4
 74
     0
 42
0.000000001
 43
0.0000000001
 40
0.0
 40
0.0
 40
0.0
 40
1.0
 40
2.0
 40
2.0
 40
2.0
 10
51.20926629689602
 20
82.66795484991995
 30
0.0
 10
50.60694967064552
 20
82.66795484991995
 30
0.0
 10
50.00694964680359
 20
81.91274246469815
 30
0.0
 10
50.00694964680359
 20
81.30810923603901
 30
0.0
  0
SPLINE
  5
4548
330
384F
100
AcDbEntity
  8
AM_0
100
AcDbSpline
210
0.0
220
0.0
230
1.0
 70
     8
 71
     2
 72
     8
 73
     5
 74
     0
 42
0.000000001
 43
0.0000000001
 40
0.0
 40
0.0
 40
0.0
 40
1.0
 40
2.0
 40
3.0
 40
3.0
 40
3.0
 10
52.4115829469884
 20
81.3335918625342
 30
0.0
 10
52.4115829469884
 20
81.73436407923155
 30
0.0
 10
52.15212347721899
 20
82.31583128380433
 30
0.0
 10
51.60308870636754
 20
82.66795484991995
 30
0.0
 10
51.20926629689602
 20
82.66795484991995
 30
0.0
  0
SPLINE
  5
4549
330
384F
100
AcDbEntity
  8
AM_0
100
AcDbSpline
210
0.0
220
0.0
230
1.0
 70
     8
 71
     2
 72
     8
 73
     5
 74
     0
 42
0.000000001
 43
0.0000000001
 40
0.0
 40
0.0
 40
0.0
 40
1.0
 40
2.0
 40
3.0
 40
3.0
 40
3.0
 10
51.76293427256474
 20
80.25637174250929
 30
0.0
 10
52.01776053751696
 20
80.34440263403814
 30
0.0
 10
52.26795359765174
 20
80.615445115851
 30
0.0
 10
52.4115829469884
 20
81.05791617590416
 30
0.0
 10
52.4115829469884
 20
81.3335918625342
 30
0.0
  0
LINE
  5
454A
330
384F
100
AcDbEntity
  8
AM_0
100
AcDbLine
 10
51.86023157372837
 20
79.81621728486465
 30
0.0
 11
51.76293427256474
 21
80.25637174250929
 31
0.0
  0
LINE
  5
454B
330
384F
100
AcDbEntity
  8
AM_0
100
AcDbLine
 10
51.81158292314647
 20
62.50656408738848
 30
0.0
 11
50.93127400785729
 21
62.91428611131198
 31
0.0
  0
LINE
  5
454C
330
384F
100
AcDbEntity
  8
AM_0
100
AcDbLine
 10
50.93127400785729
 20
62.91428611131198
 30
0.0
 11
50.93127400785729
 21
61.6586876058205
 31
0.0
  0
LINE
  5
454D
330
384F
100
AcDbEntity
  8
AM_0
100
AcDbLine
 10
50.93127400785729
 20
61.6586876058205
 30
0.0
 11
51.76293427256474
 21
62.04324360565728
 31
0.0
  0
LINE
  5
454E
330
384F
100
AcDbEntity
  8
AM_0
100
AcDbLine
 10
49.69884152645242
 20
61.07722040124786
 30
0.0
 11
50.60694967064552
 21
61.50579184684914
 31
0.0
  0
LINE
  5
454F
330
384F
100
AcDbEntity
  8
AM_0
100
AcDbLine
 10
50.60694967064552
 20
61.50579184684914
 30
0.0
 11
50.60694967064552
 21
63.0579154606486
 31
0.0
  0
LINE
  5
4550
330
384F
100
AcDbEntity
  8
AM_0
100
AcDbLine
 10
50.60694967064552
 20
63.0579154606486
 30
0.0
 11
49.69884152645242
 21
63.45637107493735
 31
0.0
  0
LINE
  5
4551
330
384F
100
AcDbEntity
  8
AM_0
100
AcDbLine
 10
49.69884152645242
 20
63.45637107493735
 30
0.0
 11
49.69884152645242
 21
63.97529001447635
 31
0.0
  0
SPLINE
  5
4552
330
384F
100
AcDbEntity
  8
AM_0
100
AcDbSpline
210
0.0
220
0.0
230
1.0
 70
     8
 71
     2
 72
     6
 73
     3
 74
     0
 42
0.000000001
 43
0.0000000001
 40
0.0
 40
0.0
 40
0.0
 40
1.0
 40
1.0
 40
1.0
 10
51.76293427256474
 20
62.04324360565728
 30
0.0
 10
52.14517366999302
 20
62.22162199112386
 30
0.0
 10
52.38378371808455
 20
62.30270307542679
 30
0.0
  0
SPLINE
  5
4553
330
384F
100
AcDbEntity
  8
AM_0
100
AcDbSpline
210
0.0
220
0.0
230
1.0
 70
     8
 71
     2
 72
     6
 73
     3
 74
     0
 42
0.000000001
 43
0.0000000001
 40
0.0
 40
0.0
 40
0.0
 40
1.0
 40
1.0
 40
1.0
 10
52.38378371808455
 20
62.30270307542679
 30
0.0
 10
52.0942084170025
 20
62.37451775009515
 30
0.0
 10
51.81158292314647
 20
62.50656408738848
 30
0.0
  0
LINE
  5
4554
330
384F
100
AcDbEntity
  8
AM_0
100
AcDbLine
 10
49.69884152645231
 20
60.5189192207618
 30
0.0
 11
49.69884152645242
 21
61.07722040124786
 31
0.0
  0
LINE
  5
4555
330
384F
100
AcDbEntity
  8
AM_0
100
AcDbLine
 10
52.69884164566168
 20
62.0293439912054
 30
0.0
 11
49.69884152645231
 21
60.5189192207618
 31
0.0
  0
LINE
  5
4556
330
384F
100
AcDbEntity
  8
AM_0
100
AcDbLine
 10
52.69884164566168
 20
62.55752934037895
 30
0.0
 11
52.69884164566168
 21
62.0293439912054
 31
0.0
  0
LINE
  5
4557
330
384F
100
AcDbEntity
  8
AM_0
100
AcDbLine
 10
49.69884152645242
 20
63.97529001447635
 30
0.0
 11
52.69884164566168
 21
62.55752934037895
 31
0.0
  0
LINE
  5
4558
330
384F
100
AcDbEntity
  8
AM_0
100
AcDbLine
 10
49.69884152645242
 20
74.57837923889389
 30
0.0
 11
52.69884164566168
 21
73.16061856479644
 31
0.0
  0
LINE
  5
4559
330
384F
100
AcDbEntity
  8
AM_0
100
AcDbLine
 10
52.69884164566171
 20
73.16061856479644
 30
0.0
 11
52.69884164566171
 21
72.63243321562304
 31
0.0
  0
LINE
  5
455A
330
384F
100
AcDbEntity
  8
AM_0
100
AcDbLine
 10
52.69884164566171
 20
72.63243321562304
 30
0.0
 11
49.69884152645242
 21
71.12200844517943
 31
0.0
  0
LINE
  5
455B
330
384F
100
AcDbEntity
  8
AM_0
100
AcDbLine
 10
49.69884152645242
 20
71.12200844517943
 30
0.0
 11
49.69884152645242
 21
71.68030962566553
 31
0.0
  0
SPLINE
  5
455C
330
384F
100
AcDbEntity
  8
AM_0
100
AcDbSpline
210
0.0
220
0.0
230
1.0
 70
     8
 71
     2
 72
     6
 73
     3
 74
     0
 42
0.000000001
 43
0.0000000001
 40
0.0
 40
0.0
 40
0.0
 40
1.0
 40
1.0
 40
1.0
 10
52.38378371808455
 20
72.90579229984439
 30
0.0
 10
52.0942084170025
 20
72.9776069745128
 30
0.0
 10
51.81158292314647
 20
73.1096533118062
 30
0.0
  0
SPLINE
  5
455D
330
384F
100
AcDbEntity
  8
AM_0
100
AcDbSpline
210
0.0
220
0.0
230
1.0
 70
     8
 71
     2
 72
     6
 73
     3
 74
     0
 42
0.000000001
 43
0.0000000001
 40
0.0
 40
0.0
 40
0.0
 40
1.0
 40
1.0
 40
1.0
 10
51.76293427256474
 20
72.64633283007487
 30
0.0
 10
52.14517366999302
 20
72.82471121554147
 30
0.0
 10
52.38378371808455
 20
72.90579229984439
 30
0.0
  0
LINE
  5
455E
330
384F
100
AcDbEntity
  8
AM_0
100
AcDbLine
 10
49.69884152645242
 20
74.05946029935501
 30
0.0
 11
49.69884152645242
 21
74.57837923889389
 31
0.0
  0
LINE
  5
455F
330
384F
100
AcDbEntity
  8
AM_0
100
AcDbLine
 10
50.60694967064552
 20
73.66100468506613
 30
0.0
 11
49.69884152645242
 21
74.05946029935501
 31
0.0
  0
LINE
  5
4560
330
384F
100
AcDbEntity
  8
AM_0
100
AcDbLine
 10
50.60694967064552
 20
72.10888107126681
 30
0.0
 11
50.60694967064552
 21
73.66100468506613
 31
0.0
  0
LINE
  5
4561
330
384F
100
AcDbEntity
  8
AM_0
100
AcDbLine
 10
49.69884152645242
 20
71.68030962566553
 30
0.0
 11
50.60694967064552
 21
72.10888107126681
 31
0.0
  0
LINE
  5
4562
330
384F
100
AcDbEntity
  8
AM_0
100
AcDbLine
 10
50.93127400785732
 20
72.26177683023803
 30
0.0
 11
51.76293427256474
 21
72.64633283007487
 31
0.0
  0
LINE
  5
4563
330
384F
100
AcDbEntity
  8
AM_0
100
AcDbLine
 10
50.93127400785732
 20
73.51737533572947
 30
0.0
 11
50.93127400785729
 21
72.26177683023803
 31
0.0
  0
LINE
  5
4564
330
384F
100
AcDbEntity
  8
AM_0
100
AcDbLine
 10
51.81158292314647
 20
73.1096533118062
 30
0.0
 11
50.93127400785732
 21
73.51737533572947
 31
0.0
  0
SPLINE
  5
4565
330
384F
100
AcDbEntity
  8
AM_0
100
AcDbSpline
210
0.0
220
0.0
230
1.0
 70
     8
 71
     2
 72
     6
 73
     3
 74
     0
 42
0.000000001
 43
0.0000000001
 40
0.0
 40
0.0
 40
0.0
 40
1.0
 40
1.0
 40
1.0
 10
-50.11814656241887
 20
64.07953512990768
 30
0.0
 10
-50.41003846590957
 20
64.14903320216734
 30
0.0
 10
-50.77142844165985
 20
64.26023011778283
 30
0.0
  0
LINE
  5
4566
330
384F
100
AcDbEntity
  8
AM_0
100
AcDbLine
 10
-50.77142844165985
 20
64.26023011778283
 30
0.0
 11
-52.69884164566146
 21
64.83938071994678
 31
0.0
  0
LINE
  5
4567
330
384F
100
AcDbEntity
  8
AM_0
100
AcDbLine
 10
-52.69884164566146
 20
64.83938071994678
 30
0.0
 11
-52.69884164566146
 21
65.33050043058182
 31
0.0
  0
LINE
  5
4568
330
384F
100
AcDbEntity
  8
AM_0
100
AcDbLine
 10
-52.69884164566146
 20
65.33050043058182
 30
0.0
 11
-49.69884152645215
 21
64.31814517799928
 31
0.0
  0
LINE
  5
4569
330
384F
100
AcDbEntity
  8
AM_0
100
AcDbLine
 10
-49.69884152645215
 20
64.31814517799928
 30
0.0
 11
-49.69884152645215
 21
63.84787488904208
 31
0.0
  0
LINE
  5
456A
330
384F
100
AcDbEntity
  8
AM_0
100
AcDbLine
 10
-49.69884152645215
 20
63.84787488904208
 30
0.0
 11
-51.98532810379546
 21
63.06717987732509
 31
0.0
  0
LINE
  5
456B
330
384F
100
AcDbEntity
  8
AM_0
100
AcDbLine
 10
-51.98532810379546
 20
63.06717987732509
 30
0.0
 11
-52.33745166991115
 21
62.95134975689235
 31
0.0
  0
SPLINE
  5
456C
330
384F
100
AcDbEntity
  8
AM_0
100
AcDbSpline
210
0.0
220
0.0
230
1.0
 70
     8
 71
     2
 72
     6
 73
     3
 74
     0
 42
0.000000001
 43
0.0000000001
 40
0.0
 40
0.0
 40
0.0
 40
1.0
 40
1.0
 40
1.0
 10
-52.33745166991115
 20
62.95134975689235
 30
0.0
 10
-52.14054046517546
 20
62.89806790149317
 30
0.0
 10
-51.98532810379546
 20
62.84246944368542
 30
0.0
  0
LINE
  5
456D
330
384F
100
AcDbEntity
  8
AM_0
100
AcDbLine
 10
-51.98532810379546
 20
62.84246944368542
 30
0.0
 11
-49.69884152645215
 21
62.05945782955978
 31
0.0
  0
LINE
  5
456E
330
384F
100
AcDbEntity
  8
AM_0
100
AcDbLine
 10
-49.69884152645215
 20
62.05945782955978
 30
0.0
 11
-49.69884152645215
 21
61.56138831169875
 31
0.0
  0
SPLINE
  5
456F
330
384F
100
AcDbEntity
  8
AM_0
100
AcDbSpline
210
0.0
220
0.0
230
1.0
 70
     8
 71
     2
 72
     6
 73
     3
 74
     0
 42
0.000000001
 43
0.0000000001
 40
0.0
 40
0.0
 40
0.0
 40
1.0
 40
1.0
 40
1.0
 10
-51.18146706799198
 20
63.787643226417
 30
0.0
 10
-50.62548248991456
 20
63.98223782874419
 30
0.0
 10
-50.11814656241887
 20
64.07953512990768
 30
0.0
  0
LINE
  5
4570
330
384F
100
AcDbEntity
  8
AM_0
100
AcDbLine
 10
-52.69884164566146
 20
63.2594578772435
 30
0.0
 11
-51.18146706799198
 21
63.787643226417
 31
0.0
  0
LINE
  5
4571
330
384F
100
AcDbEntity
  8
AM_0
100
AcDbLine
 10
-52.69884164566146
 20
62.67335746785358
 30
0.0
 11
-52.69884164566146
 21
63.2594578772435
 31
0.0
  0
LINE
  5
4572
330
384F
100
AcDbEntity
  8
AM_0
100
AcDbLine
 10
-50.67181453808764
 20
61.96679373321352
 30
0.0
 11
-52.69884164566146
 21
62.67335746785358
 31
0.0
  0
LINE
  5
4573
330
384F
100
AcDbEntity
  8
AM_0
100
AcDbLine
 10
-50.11814656241887
 20
61.80231496219897
 30
0.0
 11
-50.67181453808764
 21
61.96679373321352
 31
0.0
  0
SPLINE
  5
4574
330
384F
100
AcDbEntity
  8
AM_0
100
AcDbSpline
210
0.0
220
0.0
230
1.0
 70
     8
 71
     2
 72
     6
 73
     3
 74
     0
 42
0.000000001
 43
0.0000000001
 40
0.0
 40
0.0
 40
0.0
 40
1.0
 40
1.0
 40
1.0
 10
-50.73204620071273
 20
61.6447859984105
 30
0.0
 10
-50.42857128517875
 20
61.73281688993927
 30
0.0
 10
-50.11814656241887
 20
61.80231496219897
 30
0.0
  0
LINE
  5
4575
330
384F
100
AcDbEntity
  8
AM_0
100
AcDbLine
 10
-52.69884164566146
 20
61.08185161310706
 30
0.0
 11
-50.73204620071273
 21
61.6447859984105
 31
0.0
  0
LINE
  5
4576
330
384F
100
AcDbEntity
  8
AM_0
100
AcDbLine
 10
-52.69884164566146
 20
60.58378209524608
 30
0.0
 11
-52.69884164566146
 21
61.08185161310706
 31
0.0
  0
LINE
  5
4577
330
384F
100
AcDbEntity
  8
AM_0
100
AcDbLine
 10
-49.69884152645215
 20
61.56138831169875
 30
0.0
 11
-52.69884164566146
 21
60.58378209524608
 31
0.0
  0
LINE
  5
4578
330
384F
100
AcDbEntity
  8
AM_0
100
AcDbLine
 10
49.69884152645242
 20
70.7351358429339
 30
0.0
 11
52.69884164566171
 21
70.7351358429339
 31
0.0
  0
LINE
  5
4579
330
384F
100
AcDbEntity
  8
AM_0
100
AcDbLine
 10
52.69884164566171
 20
70.7351358429339
 30
0.0
 11
52.69884164566168
 21
69.0972979400143
 31
0.0
  0
SPLINE
  5
457A
330
384F
100
AcDbEntity
  8
AM_0
100
AcDbSpline
210
0.0
220
0.0
230
1.0
 70
     8
 71
     2
 72
     8
 73
     5
 74
     0
 42
0.000000001
 43
0.0000000001
 40
0.0
 40
0.0
 40
0.0
 40
1.0
 40
2.0
 40
3.0
 40
3.0
 40
3.0
 10
52.69884164566171
 20
69.0972979400143
 30
0.0
 10
52.69884164566171
 20
68.58532880770127
 30
0.0
 10
52.53204627223851
 20
68.09652569947497
 30
0.0
 10
52.1405404651756
 20
67.78378437430649
 30
0.0
 10
51.88339759781496
 20
67.78378437430649
 30
0.0
  0
SPLINE
  5
457B
330
384F
100
AcDbEntity
  8
AM_0
100
AcDbSpline
210
0.0
220
0.0
230
1.0
 70
     8
 71
     2
 72
     7
 73
     4
 74
     0
 42
0.000000001
 43
0.0000000001
 40
0.0
 40
0.0
 40
0.0
 40
1.0
 40
2.0
 40
2.0
 40
2.0
 10
51.88339759781496
 20
67.78378437430649
 30
0.0
 10
51.5428570437424
 20
67.78378437430649
 30
0.0
 10
51.12123540536703
 20
68.31428632588853
 30
0.0
 10
51.06563694755931
 20
68.82162225338419
 30
0.0
  0
SPLINE
  5
457C
330
384F
100
AcDbEntity
  8
AM_0
100
AcDbSpline
210
0.0
220
0.0
230
1.0
 70
     8
 71
     2
 72
     6
 73
     3
 74
     0
 42
0.000000001
 43
0.0000000001
 40
0.0
 40
0.0
 40
0.0
 40
1.0
 40
1.0
 40
1.0
 10
51.06563694755931
 20
68.82162225338419
 30
0.0
 10
50.98223926084774
 20
68.61544463901386
 30
0.0
 10
50.89884157413615
 20
68.50888092821566
 30
0.0
  0
SPLINE
  5
457D
330
384F
100
AcDbEntity
  8
AM_0
100
AcDbSpline
210
0.0
220
0.0
230
1.0
 70
     8
 71
     2
 72
     6
 73
     3
 74
     0
 42
0.000000001
 43
0.0000000001
 40
0.0
 40
0.0
 40
0.0
 40
1.0
 40
1.0
 40
1.0
 10
50.89884157413615
 20
68.50888092821566
 30
0.0
 10
50.72509639348692
 20
68.29112030180198
 30
0.0
 10
50.51428557429932
 20
68.12432492837882
 30
0.0
  0
LINE
  5
457E
330
384F
100
AcDbEntity
  8
AM_0
100
AcDbLine
 10
52.36756750122395
 20
69.08108172315372
 30
0.0
 11
52.36756750122395
 21
70.24633273470755
 31
0.0
  0
SPLINE
  5
457F
330
384F
100
AcDbEntity
  8
AM_0
100
AcDbSpline
210
0.0
220
0.0
230
1.0
 70
     8
 71
     2
 72
     7
 73
     4
 74
     0
 42
0.000000001
 43
0.0000000001
 40
0.0
 40
0.0
 40
0.0
 40
1.0
 40
2.0
 40
2.0
 40
2.0
 10
51.87876439299754
 20
68.28880369939338
 30
0.0
 10
52.10810803145442
 20
68.28880369939338
 30
0.0
 10
52.36756750122395
 20
68.68725931368222
 30
0.0
 10
52.36756750122395
 20
69.08108172315372
 30
0.0
  0
LINE
  5
4580
330
384F
100
AcDbEntity
  8
AM_0
100
AcDbLine
 10
49.69884152645242
 20
70.24633273470755
 30
0.0
 11
49.69884152645242
 21
70.7351358429339
 31
0.0
  0
LINE
  5
4581
330
384F
100
AcDbEntity
  8
AM_0
100
AcDbLine
 10
51.03088791142955
 20
70.24633273470755
 30
0.0
 11
49.69884152645242
 21
70.24633273470755
 31
0.0
  0
LINE
  5
4582
330
384F
100
AcDbEntity
  8
AM_0
100
AcDbLine
 10
51.03088791142955
 20
69.68108174699557
 30
0.0
 11
51.03088791142955
 21
70.24633273470755
 31
0.0
  0
SPLINE
  5
4583
330
384F
100
AcDbEntity
  8
AM_0
100
AcDbSpline
210
0.0
220
0.0
230
1.0
 70
     8
 71
     2
 72
     8
 73
     5
 74
     0
 42
0.000000001
 43
0.0000000001
 40
0.0
 40
0.0
 40
0.0
 40
1.0
 40
2.0
 40
3.0
 40
3.0
 40
3.0
 10
50.32200757438086
 20
68.58532880770127
 30
0.0
 10
50.68803075494844
 20
68.87258750637466
 30
0.0
 10
50.9428570199006
 20
69.16447940986535
 30
0.0
 10
51.03088791142955
 20
69.43783849408652
 30
0.0
 10
51.03088791142955
 20
69.68108174699557
 30
0.0
  0
LINE
  5
4584
330
384F
100
AcDbEntity
  8
AM_0
100
AcDbLine
 10
49.69884152645242
 20
68.09420909706637
 30
0.0
 11
50.32200757438086
 21
68.58532880770127
 31
0.0
  0
LINE
  5
4585
330
384F
100
AcDbEntity
  8
AM_0
100
AcDbLine
 10
49.69884152645242
 20
67.48030945877252
 30
0.0
 11
49.69884152645242
 21
68.09420909706637
 31
0.0
  0
LINE
  5
4586
330
384F
100
AcDbEntity
  8
AM_0
100
AcDbLine
 10
50.51428557429925
 20
68.12432492837882
 30
0.0
 11
49.69884152645242
 21
67.48030945877252
 31
0.0
  0
SPLINE
  5
4587
330
384F
100
AcDbEntity
  8
AM_0
100
AcDbSpline
210
0.0
220
0.0
230
1.0
 70
     8
 71
     2
 72
     8
 73
     5
 74
     0
 42
0.000000001
 43
0.0000000001
 40
0.0
 40
0.0
 40
0.0
 40
1.0
 40
2.0
 40
3.0
 40
3.0
 40
3.0
 10
51.37374506791065
 20
69.19691184358635
 30
0.0
 10
51.37374506791065
 20
68.85405468710548
 30
0.0
 10
51.48494198352603
 20
68.49729791617233
 30
0.0
 10
51.72123542920889
 20
68.28880369939338
 30
0.0
 10
51.87876439299754
 20
68.28880369939338
 30
0.0
  0
LINE
  5
4588
330
384F
100
AcDbEntity
  8
AM_0
100
AcDbLine
 10
51.37374506791065
 20
70.24633273470755
 30
0.0
 11
51.37374506791065
 21
69.19691184358635
 31
0.0
  0
LINE
  5
4589
330
384F
100
AcDbEntity
  8
AM_0
100
AcDbLine
 10
52.36756750122395
 20
70.24633273470755
 30
0.0
 11
51.37374506791065
 21
70.24633273470755
 31
0.0
  0
LINE
  5
458A
330
384F
100
AcDbEntity
  8
AM_0
100
AcDbLine
 10
-52.34440147713716
 20
70.46872457298055
 30
0.0
 11
-52.34440147713716
 21
69.69497936848938
 31
0.0
  0
LINE
  5
458B
330
384F
100
AcDbEntity
  8
AM_0
100
AcDbLine
 10
-52.34440147713716
 20
69.69497936848938
 30
0.0
 11
-50.05328169497659
 21
69.69497936848938
 31
0.0
  0
LINE
  5
458C
330
384F
100
AcDbEntity
  8
AM_0
100
AcDbLine
 10
-50.05328169497659
 20
69.69497936848938
 30
0.0
 11
-50.05328169497659
 21
70.48030758502362
 31
0.0
  0
SPLINE
  5
458D
330
384F
100
AcDbEntity
  8
AM_0
100
AcDbSpline
210
0.0
220
0.0
230
1.0
 70
     8
 71
     2
 72
     7
 73
     4
 74
     0
 42
0.000000001
 43
0.0000000001
 40
0.0
 40
0.0
 40
0.0
 40
1.0
 40
2.0
 40
2.0
 40
2.0
 10
-50.05328169497659
 20
70.48030758502362
 30
0.0
 10
-50.05328169497659
 20
70.95752768120684
 30
0.0
 10
-50.25945930934685
 20
71.44864739184178
 30
0.0
 10
-50.48880294780378
 20
71.57837712672648
 30
0.0
  0
SPLINE
  5
458E
330
384F
100
AcDbEntity
  8
AM_0
100
AcDbSpline
210
0.0
220
0.0
230
1.0
 70
     8
 71
     2
 72
     8
 73
     5
 74
     0
 42
0.000000001
 43
0.0000000001
 40
0.0
 40
0.0
 40
0.0
 40
1.0
 40
2.0
 40
3.0
 40
3.0
 40
3.0
 10
-52.64324318785367
 20
71.20077093411565
 30
0.0
 10
-52.57142851318533
 20
71.52277866891876
 30
0.0
 10
-52.19150571816576
 20
71.99536556028448
 30
0.0
 10
-51.61235511600185
 20
72.25945823487132
 30
0.0
 10
-51.21621610412177
 20
72.25945823487132
 30
0.0
  0
SPLINE
  5
458F
330
384F
100
AcDbEntity
  8
AM_0
100
AcDbSpline
210
0.0
220
0.0
230
1.0
 70
     8
 71
     2
 72
     8
 73
     5
 74
     0
 42
0.000000001
 43
0.0000000001
 40
0.0
 40
0.0
 40
0.0
 40
1.0
 40
2.0
 40
3.0
 40
3.0
 40
3.0
 10
-51.21621610412177
 20
72.25945823487132
 30
0.0
 10
-50.70656357421746
 20
72.25945823487132
 30
0.0
 10
-49.99536663476016
 20
71.81003736759203
 30
0.0
 10
-49.69884152645215
 20
71.1081068377693
 30
0.0
 10
-49.69884152645215
 20
70.53822264524001
 30
0.0
  0
LINE
  5
4590
330
384F
100
AcDbEntity
  8
AM_0
100
AcDbLine
 10
-49.69884152645215
 20
70.53822264524001
 30
0.0
 11
-49.69884152645215
 21
69.20617626026302
 31
0.0
  0
SPLINE
  5
4591
330
384F
100
AcDbEntity
  8
AM_0
100
AcDbSpline
210
0.0
220
0.0
230
1.0
 70
     8
 71
     2
 72
     6
 73
     3
 74
     0
 42
0.000000001
 43
0.0000000001
 40
0.0
 40
0.0
 40
0.0
 40
1.0
 40
1.0
 40
1.0
 10
-50.48880294780378
 20
71.57837712672648
 30
0.0
 10
-50.79459446574634
 20
71.75443890978431
 30
0.0
 10
-51.21853270653037
 20
71.75443890978431
 30
0.0
  0
SPLINE
  5
4592
330
384F
100
AcDbEntity
  8
AM_0
100
AcDbSpline
210
0.0
220
0.0
230
1.0
 70
     8
 71
     2
 72
     7
 73
     4
 74
     0
 42
0.000000001
 43
0.0000000001
 40
0.0
 40
0.0
 40
0.0
 40
1.0
 40
2.0
 40
2.0
 40
2.0
 10
-51.21853270653037
 20
71.75443890978431
 30
0.0
 10
-51.67490338103557
 20
71.75443890978431
 30
0.0
 10
-52.19613892298318
 20
71.38378252439935
 30
0.0
 10
-52.28416981451207
 20
71.09189062090883
 30
0.0
  0
SPLINE
  5
4593
330
384F
100
AcDbEntity
  8
AM_0
100
AcDbSpline
210
0.0
220
0.0
230
1.0
 70
     8
 71
     2
 72
     6
 73
     3
 74
     0
 42
0.000000001
 43
0.0000000001
 40
0.0
 40
0.0
 40
0.0
 40
1.0
 40
1.0
 40
1.0
 10
-52.28416981451207
 20
71.09189062090883
 30
0.0
 10
-52.34440147713707
 20
70.89497941617304
 30
0.0
 10
-52.34440147713707
 20
70.46872457298055
 30
0.0
  0
SPLINE
  5
4594
330
384F
100
AcDbEntity
  8
AM_0
100
AcDbSpline
210
0.0
220
0.0
230
1.0
 70
     8
 71
     2
 72
     6
 73
     3
 74
     0
 42
0.000000001
 43
0.0000000001
 40
0.0
 40
0.0
 40
0.0
 40
1.0
 40
1.0
 40
1.0
 10
-52.69884164566146
 20
70.48030758502362
 30
0.0
 10
-52.69884164566146
 20
70.95289447638946
 30
0.0
 10
-52.64324318785367
 20
71.20077093411565
 30
0.0
  0
LINE
  5
4595
330
384F
100
AcDbEntity
  8
AM_0
100
AcDbLine
 10
-52.69884164566146
 20
69.20617626026302
 30
0.0
 11
-52.69884164566146
 21
70.48030758502362
 31
0.0
  0
LINE
  5
4596
330
384F
100
AcDbEntity
  8
AM_0
100
AcDbLine
 10
-49.69884152645215
 20
69.20617626026302
 30
0.0
 11
-52.69884164566146
 21
69.20617626026302
 31
0.0
  0
LINE
  5
4597
330
384F
100
AcDbEntity
  8
AM_0
100
AcDbLine
 10
49.69884152645242
 20
67.00077276018068
 30
0.0
 11
52.69884164566168
 21
67.00077276018068
 31
0.0
  0
LINE
  5
4598
330
384F
100
AcDbEntity
  8
AM_0
100
AcDbLine
 10
52.69884164566168
 20
67.00077276018068
 30
0.0
 11
52.69884164566168
 21
64.33204678540931
 31
0.0
  0
LINE
  5
4599
330
384F
100
AcDbEntity
  8
AM_0
100
AcDbLine
 10
52.69884164566168
 20
64.33204678540931
 30
0.0
 11
52.34440147713735
 21
64.33204678540931
 31
0.0
  0
LINE
  5
459A
330
384F
100
AcDbEntity
  8
AM_0
100
AcDbLine
 10
52.34440147713735
 20
64.33204678540931
 30
0.0
 11
52.34440147713735
 21
66.51196965195436
 31
0.0
  0
LINE
  5
459B
330
384F
100
AcDbEntity
  8
AM_0
100
AcDbLine
 10
52.34440147713735
 20
66.51196965195436
 30
0.0
 11
51.42934352571835
 21
66.51196965195436
 31
0.0
  0
LINE
  5
459C
330
384F
100
AcDbEntity
  8
AM_0
100
AcDbLine
 10
51.42934352571835
 20
66.51196965195436
 30
0.0
 11
51.42934352571835
 21
64.4710429299285
 31
0.0
  0
LINE
  5
459D
330
384F
100
AcDbEntity
  8
AM_0
100
AcDbLine
 10
49.69884152645242
 20
64.24633249628897
 30
0.0
 11
49.69884152645242
 21
67.00077276018068
 31
0.0
  0
LINE
  5
459E
330
384F
100
AcDbEntity
  8
AM_0
100
AcDbLine
 10
50.0532816949767
 20
64.24633249628897
 30
0.0
 11
49.69884152645242
 21
64.24633249628897
 31
0.0
  0
LINE
  5
459F
330
384F
100
AcDbEntity
  8
AM_0
100
AcDbLine
 10
50.0532816949767
 20
66.51196965195436
 30
0.0
 11
50.0532816949767
 21
64.24633249628897
 31
0.0
  0
LINE
  5
45A0
330
384F
100
AcDbEntity
  8
AM_0
100
AcDbLine
 10
51.07490335719404
 20
66.51196965195436
 30
0.0
 11
50.0532816949767
 21
66.51196965195436
 31
0.0
  0
LINE
  5
45A1
330
384F
100
AcDbEntity
  8
AM_0
100
AcDbLine
 10
51.07490335719404
 20
64.4710429299285
 30
0.0
 11
51.07490335719404
 21
66.51196965195436
 31
0.0
  0
LINE
  5
45A2
330
384F
100
AcDbEntity
  8
AM_0
100
AcDbLine
 10
51.42934352571835
 20
64.4710429299285
 30
0.0
 11
51.07490335719404
 21
64.4710429299285
 31
0.0
  0
LINE
  5
45A3
330
384F
100
AcDbEntity
  8
AM_0
100
AcDbLine
 10
-51.86023157372807
 20
76.18378271513427
 30
0.0
 11
-51.76293427256457
 21
75.74362825748972
 31
0.0
  0
SPLINE
  5
45A4
330
384F
100
AcDbEntity
  8
AM_0
100
AcDbSpline
210
0.0
220
0.0
230
1.0
 70
     8
 71
     2
 72
     8
 73
     5
 74
     0
 42
0.000000001
 43
0.0000000001
 40
0.0
 40
0.0
 40
0.0
 40
1.0
 40
2.0
 40
3.0
 40
3.0
 40
3.0
 10
-51.76293427256457
 20
75.74362825748972
 30
0.0
 10
-52.01776053751665
 20
75.65559736596077
 30
0.0
 10
-52.26795359765147
 20
75.38455488414797
 30
0.0
 10
-52.41158294698806
 20
74.94208382409471
 30
0.0
 10
-52.41158294698806
 20
74.66640813746465
 30
0.0
  0
SPLINE
  5
45A5
330
384F
100
AcDbEntity
  8
AM_0
100
AcDbSpline
210
0.0
220
0.0
230
1.0
 70
     8
 71
     2
 72
     8
 73
     5
 74
     0
 42
0.000000001
 43
0.0000000001
 40
0.0
 40
0.0
 40
0.0
 40
1.0
 40
2.0
 40
3.0
 40
3.0
 40
3.0
 10
-52.41158294698806
 20
74.66640813746465
 30
0.0
 10
-52.41158294698806
 20
74.26563592076729
 30
0.0
 10
-52.15212347721863
 20
73.68416871619456
 30
0.0
 10
-51.60308870636725
 20
73.33204515007896
 30
0.0
 10
-51.20926629689575
 20
73.33204515007896
 30
0.0
  0
SPLINE
  5
45A6
330
384F
100
AcDbEntity
  8
AM_0
100
AcDbSpline
210
0.0
220
0.0
230
1.0
 70
     8
 71
     2
 72
     7
 73
     4
 74
     0
 42
0.000000001
 43
0.0000000001
 40
0.0
 40
0.0
 40
0.0
 40
1.0
 40
2.0
 40
2.0
 40
2.0
 10
-51.20926629689575
 20
73.33204515007896
 30
0.0
 10
-50.60694967064526
 20
73.33204515007896
 30
0.0
 10
-50.00694964680334
 20
74.08725753530081
 30
0.0
 10
-50.00694964680334
 20
74.6918907639599
 30
0.0
  0
SPLINE
  5
45A7
330
384F
100
AcDbEntity
  8
AM_0
100
AcDbSpline
210
0.0
220
0.0
230
1.0
 70
     8
 71
     2
 72
     7
 73
     4
 74
     0
 42
0.000000001
 43
0.0000000001
 40
0.0
 40
0.0
 40
0.0
 40
1.0
 40
2.0
 40
2.0
 40
2.0
 10
-50.00694964680334
 20
74.6918907639599
 30
0.0
 10
-50.00694964680334
 20
74.9791494626333
 30
0.0
 10
-50.18996123708726
 20
75.58378269129234
 30
0.0
 10
-50.31737436956325
 20
75.76216107675891
 30
0.0
  0
LINE
  5
45A8
330
384F
100
AcDbEntity
  8
AM_0
100
AcDbLine
 10
-50.31737436956333
 20
75.76216107675891
 30
0.0
 11
-50.87567555004935
 21
75.76216107675891
 31
0.0
  0
LINE
  5
45A9
330
384F
100
AcDbEntity
  8
AM_0
100
AcDbLine
 10
-50.87567555004935
 20
75.76216107675891
 30
0.0
 11
-50.87567555004935
 21
74.67799114950797
 31
0.0
  0
SPLINE
  5
45AA
330
384F
100
AcDbEntity
  8
AM_0
100
AcDbSpline
210
0.0
220
0.0
230
1.0
 70
     8
 71
     2
 72
     8
 73
     5
 74
     0
 42
0.000000001
 43
0.0000000001
 40
0.0
 40
0.0
 40
0.0
 40
1.0
 40
2.0
 40
3.0
 40
3.0
 40
3.0
 10
-52.75212350106055
 20
74.67799114950797
 30
0.0
 10
-52.75212350106055
 20
75.08339657102283
 30
0.0
 10
-52.55057909150747
 20
75.69266300449914
 30
0.0
 10
-52.18223930853117
 20
76.08648541397065
 30
0.0
 10
-51.86023157372807
 20
76.18378271513427
 30
0.0
  0
SPLINE
  5
45AB
330
384F
100
AcDbEntity
  8
AM_0
100
AcDbSpline
210
0.0
220
0.0
230
1.0
 70
     8
 71
     2
 72
     8
 73
     5
 74
     0
 42
0.000000001
 43
0.0000000001
 40
0.0
 40
0.0
 40
0.0
 40
1.0
 40
2.0
 40
3.0
 40
3.0
 40
3.0
 10
-51.18610027280926
 20
72.82702582499206
 30
0.0
 10
-51.67721998344426
 20
72.82702582499206
 30
0.0
 10
-52.40694974217084
 20
73.32509534285304
 30
0.0
 10
-52.75212350106055
 20
74.12895637865656
 30
0.0
 10
-52.75212350106055
 20
74.67799114950797
 30
0.0
  0
SPLINE
  5
45AC
330
384F
100
AcDbEntity
  8
AM_0
100
AcDbSpline
210
0.0
220
0.0
230
1.0
 70
     8
 71
     2
 72
     8
 73
     5
 74
     0
 42
0.000000001
 43
0.0000000001
 40
0.0
 40
0.0
 40
0.0
 40
1.0
 40
2.0
 40
3.0
 40
3.0
 40
3.0
 10
-49.64787627346176
 20
74.71042358322915
 30
0.0
 10
-49.64787627346176
 20
74.1683386196038
 30
0.0
 10
-50.00926624921206
 20
73.32046213803569
 30
0.0
 10
-50.69961376699149
 20
72.82702582499206
 30
0.0
 10
-51.18610027280926
 20
72.82702582499206
 30
0.0
  0
SPLINE
  5
45AD
330
384F
100
AcDbEntity
  8
AM_0
100
AcDbSpline
210
0.0
220
0.0
230
1.0
 70
     8
 71
     2
 72
     7
 73
     4
 74
     0
 42
0.000000001
 43
0.0000000001
 40
0.0
 40
0.0
 40
0.0
 40
1.0
 40
2.0
 40
2.0
 40
2.0
 10
-50.11814656241887
 20
76.24169777535056
 30
0.0
 10
-49.88416971914467
 20
75.88262440200896
 30
0.0
 10
-49.64787627346176
 20
75.11582900474389
 30
0.0
 10
-49.64787627346176
 20
74.71042358322915
 30
0.0
  0
LINE
  5
45AE
330
384F
100
AcDbEntity
  8
AM_0
100
AcDbLine
 10
-51.23243232098236
 20
76.24169777535056
 30
0.0
 11
-50.11814656241887
 21
76.24169777535056
 31
0.0
  0
LINE
  5
45AF
330
384F
100
AcDbEntity
  8
AM_0
100
AcDbLine
 10
-51.23011571857368
 20
74.67799114950797
 30
0.0
 11
-51.23243232098236
 21
76.24169777535056
 31
0.0
  0
LINE
  5
45B0
330
384F
100
AcDbEntity
  8
AM_0
100
AcDbLine
 10
-50.87567555004935
 20
74.67799114950797
 30
0.0
 11
-51.23011571857368
 21
74.67799114950797
 31
0.0
  0
LINE
  5
45B1
330
384F
100
AcDbEntity
  8
AM_0
100
AcDbLine
 10
-49.69884152645215
 20
65.78687110508695
 30
0.0
 11
-52.69884164566146
 21
65.78687110508695
 31
0.0
  0
LINE
  5
45B2
330
384F
100
AcDbEntity
  8
AM_0
100
AcDbLine
 10
-52.69884164566146
 20
65.78687110508695
 30
0.0
 11
-52.69884164566146
 21
68.45559707985848
 31
0.0
  0
LINE
  5
45B3
330
384F
100
AcDbEntity
  8
AM_0
100
AcDbLine
 10
-52.69884164566146
 20
68.45559707985848
 30
0.0
 11
-52.34440147713716
 21
68.45559707985848
 31
0.0
  0
LINE
  5
45B4
330
384F
100
AcDbEntity
  8
AM_0
100
AcDbLine
 10
-52.34440147713716
 20
68.45559707985848
 30
0.0
 11
-52.34440147713716
 21
66.27567421331338
 31
0.0
  0
LINE
  5
45B5
330
384F
100
AcDbEntity
  8
AM_0
100
AcDbLine
 10
-52.34440147713716
 20
66.27567421331338
 30
0.0
 11
-51.42934352571808
 21
66.27567421331338
 31
0.0
  0
LINE
  5
45B6
330
384F
100
AcDbEntity
  8
AM_0
100
AcDbLine
 10
-51.42934352571808
 20
66.27567421331338
 30
0.0
 11
-51.42934352571808
 21
68.31660093533924
 31
0.0
  0
LINE
  5
45B7
330
384F
100
AcDbEntity
  8
AM_0
100
AcDbLine
 10
-49.69884152645215
 20
68.54131136897866
 30
0.0
 11
-49.69884152645215
 21
65.78687110508695
 31
0.0
  0
LINE
  5
45B8
330
384F
100
AcDbEntity
  8
AM_0
100
AcDbLine
 10
-50.05328169497659
 20
68.54131136897866
 30
0.0
 11
-49.69884152645215
 21
68.54131136897866
 31
0.0
  0
LINE
  5
45B9
330
384F
100
AcDbEntity
  8
AM_0
100
AcDbLine
 10
-50.05328169497659
 20
66.27567421331338
 30
0.0
 11
-50.05328169497659
 21
68.54131136897866
 31
0.0
  0
LINE
  5
45BA
330
384F
100
AcDbEntity
  8
AM_0
100
AcDbLine
 10
-51.07490335719376
 20
66.27567421331338
 30
0.0
 11
-50.05328169497659
 21
66.27567421331338
 31
0.0
  0
LINE
  5
45BB
330
384F
100
AcDbEntity
  8
AM_0
100
AcDbLine
 10
-51.07490335719376
 20
68.31660093533924
 30
0.0
 11
-51.07490335719376
 21
66.27567421331338
 31
0.0
  0
LINE
  5
45BC
330
384F
100
AcDbEntity
  8
AM_0
100
AcDbLine
 10
-51.42934352571808
 20
68.31660093533924
 30
0.0
 11
-51.07490335719376
 21
68.31660093533924
 31
0.0
  0
LINE
  5
45BD
330
384F
100
AcDbEntity
  8
AM_0
100
AcDbLine
 10
-51.81158292314624
 20
82.89034668819281
 30
0.0
 11
-50.93127400785707
 21
82.48262466426934
 31
0.0
  0
LINE
  5
45BE
330
384F
100
AcDbEntity
  8
AM_0
100
AcDbLine
 10
-50.93127400785707
 20
82.48262466426934
 30
0.0
 11
-50.93127400785707
 21
83.73822316976083
 31
0.0
  0
LINE
  5
45BF
330
384F
100
AcDbEntity
  8
AM_0
100
AcDbLine
 10
-50.93127400785707
 20
83.73822316976083
 30
0.0
 11
-51.76293427256457
 21
83.353667169924
 31
0.0
  0
LINE
  5
45C0
330
384F
100
AcDbEntity
  8
AM_0
100
AcDbLine
 10
-49.69884152645215
 20
84.31969037433352
 30
0.0
 11
-50.60694967064526
 21
83.89111892873206
 31
0.0
  0
LINE
  5
45C1
330
384F
100
AcDbEntity
  8
AM_0
100
AcDbLine
 10
-50.60694967064526
 20
83.89111892873206
 30
0.0
 11
-50.60694967064526
 21
82.33899531493262
 31
0.0
  0
LINE
  5
45C2
330
384F
100
AcDbEntity
  8
AM_0
100
AcDbLine
 10
-50.60694967064526
 20
82.33899531493262
 30
0.0
 11
-49.69884152645215
 21
81.94053970064386
 31
0.0
  0
LINE
  5
45C3
330
384F
100
AcDbEntity
  8
AM_0
100
AcDbLine
 10
-49.69884152645215
 20
81.94053970064386
 30
0.0
 11
-49.69884152645215
 21
81.421620761105
 31
0.0
  0
SPLINE
  5
45C4
330
384F
100
AcDbEntity
  8
AM_0
100
AcDbSpline
210
0.0
220
0.0
230
1.0
 70
     8
 71
     2
 72
     6
 73
     3
 74
     0
 42
0.000000001
 43
0.0000000001
 40
0.0
 40
0.0
 40
0.0
 40
1.0
 40
1.0
 40
1.0
 10
-51.76293427256457
 20
83.353667169924
 30
0.0
 10
-52.14517366999269
 20
83.17528878445751
 30
0.0
 10
-52.38378371808426
 20
83.09420770015458
 30
0.0
  0
SPLINE
  5
45C5
330
384F
100
AcDbEntity
  8
AM_0
100
AcDbSpline
210
0.0
220
0.0
230
1.0
 70
     8
 71
     2
 72
     6
 73
     3
 74
     0
 42
0.000000001
 43
0.0000000001
 40
0.0
 40
0.0
 40
0.0
 40
1.0
 40
1.0
 40
1.0
 10
-52.38378371808426
 20
83.09420770015458
 30
0.0
 10
-52.09420841700225
 20
83.02239302548617
 30
0.0
 10
-51.81158292314624
 20
82.89034668819281
 30
0.0
  0
LINE
  5
45C6
330
384F
100
AcDbEntity
  8
AM_0
100
AcDbLine
 10
-49.69884152645215
 20
84.87799155481951
 30
0.0
 11
-49.69884152645215
 21
84.31969037433352
 31
0.0
  0
LINE
  5
45C7
330
384F
100
AcDbEntity
  8
AM_0
100
AcDbLine
 10
-52.69884164566146
 20
83.36756678437598
 30
0.0
 11
-49.69884152645215
 21
84.87799155481951
 31
0.0
  0
LINE
  5
45C8
330
384F
100
AcDbEntity
  8
AM_0
100
AcDbLine
 10
-52.69884164566146
 20
82.83938143520231
 30
0.0
 11
-52.69884164566146
 21
83.36756678437598
 31
0.0
  0
LINE
  5
45C9
330
384F
100
AcDbEntity
  8
AM_0
100
AcDbLine
 10
-49.69884152645215
 20
81.421620761105
 30
0.0
 11
-52.69884164566146
 21
82.83938143520231
 31
0.0
  0
LINE
  5
45CA
330
384F
100
AcDbEntity
  8
AM_0
100
AcDbLine
 10
-49.69884152645215
 20
76.9621611244425
 30
0.0
 11
-52.69884164566146
 21
76.9621611244425
 31
0.0
  0
LINE
  5
45CB
330
384F
100
AcDbEntity
  8
AM_0
100
AcDbLine
 10
-52.69884164566146
 20
76.9621611244425
 30
0.0
 11
-52.69884164566146
 21
79.63088709921419
 31
0.0
  0
LINE
  5
45CC
330
384F
100
AcDbEntity
  8
AM_0
100
AcDbLine
 10
-52.69884164566146
 20
79.63088709921419
 30
0.0
 11
-52.34440147713707
 21
79.63088709921419
 31
0.0
  0
LINE
  5
45CD
330
384F
100
AcDbEntity
  8
AM_0
100
AcDbLine
 10
-52.34440147713707
 20
79.63088709921419
 30
0.0
 11
-52.34440147713707
 21
77.45096423266898
 31
0.0
  0
LINE
  5
45CE
330
384F
100
AcDbEntity
  8
AM_0
100
AcDbLine
 10
-52.34440147713707
 20
77.45096423266898
 30
0.0
 11
-51.42934352571808
 21
77.45096423266898
 31
0.0
  0
LINE
  5
45CF
330
384F
100
AcDbEntity
  8
AM_0
100
AcDbLine
 10
-51.42934352571808
 20
77.45096423266898
 30
0.0
 11
-51.42934352571808
 21
79.49189095469467
 31
0.0
  0
LINE
  5
45D0
330
384F
100
AcDbEntity
  8
AM_0
100
AcDbLine
 10
-49.69884152645215
 20
79.71660138833424
 30
0.0
 11
-49.69884152645215
 21
76.9621611244425
 31
0.0
  0
LINE
  5
45D1
330
384F
100
AcDbEntity
  8
AM_0
100
AcDbLine
 10
-50.05328169497659
 20
79.71660138833424
 30
0.0
 11
-49.69884152645215
 21
79.71660138833424
 31
0.0
  0
LINE
  5
45D2
330
384F
100
AcDbEntity
  8
AM_0
100
AcDbLine
 10
-50.05328169497659
 20
77.45096423266898
 30
0.0
 11
-50.05328169497659
 21
79.71660138833424
 31
0.0
  0
LINE
  5
45D3
330
384F
100
AcDbEntity
  8
AM_0
100
AcDbLine
 10
-51.07490335719376
 20
77.45096423266898
 30
0.0
 11
-50.05328169497659
 21
77.45096423266898
 31
0.0
  0
LINE
  5
45D4
330
384F
100
AcDbEntity
  8
AM_0
100
AcDbLine
 10
-51.07490335719376
 20
79.49189095469467
 30
0.0
 11
-51.07490335719376
 21
77.45096423266898
 31
0.0
  0
LINE
  5
45D5
330
384F
100
AcDbEntity
  8
AM_0
100
AcDbLine
 10
-51.42934352571808
 20
79.49189095469467
 30
0.0
 11
-51.07490335719376
 21
79.49189095469467
 31
0.0
  0
LINE
  5
45D6
330
384F
100
AcDbEntity
  8
AM_0
100
AcDbLine
 10
-52.36756750122363
 20
85.75366726529143
 30
0.0
 11
-51.37374506791033
 21
85.75366726529143
 31
0.0
  0
LINE
  5
45D7
330
384F
100
AcDbEntity
  8
AM_0
100
AcDbLine
 10
-51.37374506791033
 20
85.75366726529143
 30
0.0
 11
-51.37374506791033
 21
86.8030881564125
 31
0.0
  0
SPLINE
  5
45D8
330
384F
100
AcDbEntity
  8
AM_0
100
AcDbSpline
210
0.0
220
0.0
230
1.0
 70
     8
 71
     2
 72
     8
 73
     5
 74
     0
 42
0.000000001
 43
0.0000000001
 40
0.0
 40
0.0
 40
0.0
 40
1.0
 40
2.0
 40
3.0
 40
3.0
 40
3.0
 10
-51.37374506791033
 20
86.8030881564125
 30
0.0
 10
-51.37374506791033
 20
87.14594531289343
 30
0.0
 10
-51.48494198352574
 20
87.5027020838265
 30
0.0
 10
-51.72123542920866
 20
87.71119630060551
 30
0.0
 10
-51.87876439299724
 20
87.71119630060551
 30
0.0
  0
LINE
  5
45D9
330
384F
100
AcDbEntity
  8
AM_0
100
AcDbLine
 10
-50.51428557429907
 20
87.8756750716202
 30
0.0
 11
-49.69884152645215
 21
88.51969054122653
 31
0.0
  0
LINE
  5
45DA
330
384F
100
AcDbEntity
  8
AM_0
100
AcDbLine
 10
-49.69884152645215
 20
88.51969054122653
 30
0.0
 11
-49.69884152645215
 21
87.90579090293249
 31
0.0
  0
LINE
  5
45DB
330
384F
100
AcDbEntity
  8
AM_0
100
AcDbLine
 10
-49.69884152645215
 20
87.90579090293249
 30
0.0
 11
-50.32200757438054
 21
87.41467119229753
 31
0.0
  0
SPLINE
  5
45DC
330
384F
100
AcDbEntity
  8
AM_0
100
AcDbSpline
210
0.0
220
0.0
230
1.0
 70
     8
 71
     2
 72
     8
 73
     5
 74
     0
 42
0.000000001
 43
0.0000000001
 40
0.0
 40
0.0
 40
0.0
 40
1.0
 40
2.0
 40
3.0
 40
3.0
 40
3.0
 10
-50.32200757438054
 20
87.41467119229753
 30
0.0
 10
-50.68803075494816
 20
87.12741249362426
 30
0.0
 10
-50.94285701990037
 20
86.83552059013351
 30
0.0
 10
-51.03088791142926
 20
86.56216150591218
 30
0.0
 10
-51.03088791142926
 20
86.31891825300341
 30
0.0
  0
LINE
  5
45DD
330
384F
100
AcDbEntity
  8
AM_0
100
AcDbLine
 10
-51.03088791142926
 20
86.31891825300341
 30
0.0
 11
-51.03088791142926
 21
85.75366726529138
 31
0.0
  0
LINE
  5
45DE
330
384F
100
AcDbEntity
  8
AM_0
100
AcDbLine
 10
-51.03088791142926
 20
85.75366726529138
 30
0.0
 11
-49.69884152645215
 21
85.75366726529138
 31
0.0
  0
LINE
  5
45DF
330
384F
100
AcDbEntity
  8
AM_0
100
AcDbLine
 10
-49.69884152645215
 20
85.75366726529138
 30
0.0
 11
-49.69884152645215
 21
85.264864157065
 31
0.0
  0
SPLINE
  5
45E0
330
384F
100
AcDbEntity
  8
AM_0
100
AcDbSpline
210
0.0
220
0.0
230
1.0
 70
     8
 71
     2
 72
     7
 73
     4
 74
     0
 42
0.000000001
 43
0.0000000001
 40
0.0
 40
0.0
 40
0.0
 40
1.0
 40
2.0
 40
2.0
 40
2.0
 10
-51.87876439299724
 20
87.71119630060551
 30
0.0
 10
-52.10810803145415
 20
87.71119630060551
 30
0.0
 10
-52.36756750122363
 20
87.31274068631675
 30
0.0
 10
-52.36756750122363
 20
86.91891827684532
 30
0.0
  0
LINE
  5
45E1
330
384F
100
AcDbEntity
  8
AM_0
100
AcDbLine
 10
-52.36756750122363
 20
86.91891827684532
 30
0.0
 11
-52.36756750122363
 21
85.75366726529143
 31
0.0
  0
SPLINE
  5
45E2
330
384F
100
AcDbEntity
  8
AM_0
100
AcDbSpline
210
0.0
220
0.0
230
1.0
 70
     8
 71
     2
 72
     6
 73
     3
 74
     0
 42
0.000000001
 43
0.0000000001
 40
0.0
 40
0.0
 40
0.0
 40
1.0
 40
1.0
 40
1.0
 10
-50.89884157413584
 20
87.49111907178315
 30
0.0
 10
-50.72509639348665
 20
87.70887969819687
 30
0.0
 10
-50.51428557429897
 20
87.8756750716202
 30
0.0
  0
SPLINE
  5
45E3
330
384F
100
AcDbEntity
  8
AM_0
100
AcDbSpline
210
0.0
220
0.0
230
1.0
 70
     8
 71
     2
 72
     6
 73
     3
 74
     0
 42
0.000000001
 43
0.0000000001
 40
0.0
 40
0.0
 40
0.0
 40
1.0
 40
1.0
 40
1.0
 10
-51.06563694755905
 20
87.17837774661465
 30
0.0
 10
-50.98223926084747
 20
87.38455536098497
 30
0.0
 10
-50.89884157413584
 20
87.49111907178315
 30
0.0
  0
SPLINE
  5
45E4
330
384F
100
AcDbEntity
  8
AM_0
100
AcDbSpline
210
0.0
220
0.0
230
1.0
 70
     8
 71
     2
 72
     7
 73
     4
 74
     0
 42
0.000000001
 43
0.0000000001
 40
0.0
 40
0.0
 40
0.0
 40
1.0
 40
2.0
 40
2.0
 40
2.0
 10
-51.88339759781456
 20
88.21621562569253
 30
0.0
 10
-51.54285704374217
 20
88.21621562569253
 30
0.0
 10
-51.12123540536686
 20
87.68571367411032
 30
0.0
 10
-51.06563694755905
 20
87.17837774661465
 30
0.0
  0
SPLINE
  5
45E5
330
384F
100
AcDbEntity
  8
AM_0
100
AcDbSpline
210
0.0
220
0.0
230
1.0
 70
     8
 71
     2
 72
     8
 73
     5
 74
     0
 42
0.000000001
 43
0.0000000001
 40
0.0
 40
0.0
 40
0.0
 40
1.0
 40
2.0
 40
3.0
 40
3.0
 40
3.0
 10
-52.69884164566146
 20
86.9027020599845
 30
0.0
 10
-52.69884164566146
 20
87.41467119229753
 30
0.0
 10
-52.53204627223815
 20
87.90347430052403
 30
0.0
 10
-52.14054046517535
 20
88.21621562569253
 30
0.0
 10
-51.88339759781456
 20
88.21621562569253
 30
0.0
  0
LINE
  5
45E6
330
384F
100
AcDbEntity
  8
AM_0
100
AcDbLine
 10
-52.69884164566146
 20
85.264864157065
 30
0.0
 11
-52.69884164566146
 21
86.9027020599845
 31
0.0
  0
LINE
  5
45E7
330
384F
100
AcDbEntity
  8
AM_0
100
AcDbLine
 10
-49.69884152645215
 20
85.264864157065
 30
0.0
 11
-52.69884164566146
 21
85.264864157065
 31
0.0
  0
LINE
  5
45E8
330
384F
100
AcDbEntity
  8
AM_0
100
AcDbLine
 10
-49.69884152645215
 20
92.02470998552252
 30
0.0
 11
-52.69884164566136
 21
93.44247065961996
 31
0.0
  0
LINE
  5
45E9
330
384F
100
AcDbEntity
  8
AM_0
100
AcDbLine
 10
-52.69884164566136
 20
93.44247065961985
 30
0.0
 11
-52.69884164566136
 21
93.97065600879349
 31
0.0
  0
LINE
  5
45EA
330
384F
100
AcDbEntity
  8
AM_0
100
AcDbLine
 10
-52.69884164566136
 20
93.97065600879349
 30
0.0
 11
-49.69884152645215
 21
95.48108077923705
 31
0.0
  0
LINE
  5
45EB
330
384F
100
AcDbEntity
  8
AM_0
100
AcDbLine
 10
-49.69884152645215
 20
95.48108077923705
 30
0.0
 11
-49.69884152645215
 21
94.92277959875099
 31
0.0
  0
SPLINE
  5
45EC
330
384F
100
AcDbEntity
  8
AM_0
100
AcDbSpline
210
0.0
220
0.0
230
1.0
 70
     8
 71
     2
 72
     6
 73
     3
 74
     0
 42
0.000000001
 43
0.0000000001
 40
0.0
 40
0.0
 40
0.0
 40
1.0
 40
1.0
 40
1.0
 10
-52.38378371808426
 20
93.69729692457212
 30
0.0
 10
-52.09420841700225
 20
93.62548224990382
 30
0.0
 10
-51.81158292314624
 20
93.49343591261032
 30
0.0
  0
SPLINE
  5
45ED
330
384F
100
AcDbEntity
  8
AM_0
100
AcDbSpline
210
0.0
220
0.0
230
1.0
 70
     8
 71
     2
 72
     6
 73
     3
 74
     0
 42
0.000000001
 43
0.0000000001
 40
0.0
 40
0.0
 40
0.0
 40
1.0
 40
1.0
 40
1.0
 10
-51.76293427256448
 20
93.95675639434154
 30
0.0
 10
-52.14517366999269
 20
93.77837800887505
 30
0.0
 10
-52.38378371808426
 20
93.69729692457212
 30
0.0
  0
LINE
  5
45EE
330
384F
100
AcDbEntity
  8
AM_0
100
AcDbLine
 10
-49.69884152645215
 20
92.54362892506151
 30
0.0
 11
-49.69884152645215
 21
92.02470998552252
 31
0.0
  0
LINE
  5
45EF
330
384F
100
AcDbEntity
  8
AM_0
100
AcDbLine
 10
-50.60694967064526
 20
92.94208453935027
 30
0.0
 11
-49.69884152645215
 21
92.54362892506151
 31
0.0
  0
LINE
  5
45F0
330
384F
100
AcDbEntity
  8
AM_0
100
AcDbLine
 10
-50.60694967064526
 20
94.49420815314963
 30
0.0
 11
-50.60694967064526
 21
92.94208453935027
 31
0.0
  0
LINE
  5
45F1
330
384F
100
AcDbEntity
  8
AM_0
100
AcDbLine
 10
-49.69884152645215
 20
94.92277959875099
 30
0.0
 11
-50.60694967064526
 21
94.49420815314963
 31
0.0
  0
LINE
  5
45F2
330
384F
100
AcDbEntity
  8
AM_0
100
AcDbLine
 10
-50.93127400785697
 20
94.34131239417835
 30
0.0
 11
-51.76293427256448
 21
93.95675639434154
 31
0.0
  0
LINE
  5
45F3
330
384F
100
AcDbEntity
  8
AM_0
100
AcDbLine
 10
-50.93127400785697
 20
93.08571388868704
 30
0.0
 11
-50.93127400785697
 21
94.34131239417835
 31
0.0
  0
LINE
  5
45F4
330
384F
100
AcDbEntity
  8
AM_0
100
AcDbLine
 10
-51.81158292314624
 20
93.49343591261032
 30
0.0
 11
-50.93127400785697
 21
93.08571388868704
 31
0.0
  0
ARC
  5
45F5
102
{ACAD_REACTORS
330
461B
102
}
330
384F
100
AcDbEntity
  8
AM_0
100
AcDbCircle
 10
46.19999999999976
 20
-99.99999999999891
 30
0.0
 40
9.999999999999962
100
AcDbArc
 50
270.0
 51
0.0
  0
ARC
  5
45F6
330
384F
100
AcDbEntity
  8
AM_0
100
AcDbCircle
 10
46.20000000000003
 20
99.99999999999905
 30
0.0
 40
9.999999999999987
100
AcDbArc
 50
0.0
 51
90.0
  0
ARC
  5
45F7
330
384F
100
AcDbEntity
  8
AM_0
100
AcDbCircle
 10
-46.19999999999976
 20
99.99999999999957
 30
0.0
 40
9.999999999999943
100
AcDbArc
 50
90.0
 51
180.0
  0
ARC
  5
45F8
102
{ACAD_REACTORS
330
461B
102
}
330
384F
100
AcDbEntity
  8
AM_0
100
AcDbCircle
 10
-46.19999999999999
 20
-99.99999999999923
 30
0.0
 40
9.999999999999973
100
AcDbArc
 50
180.0
 51
270.0
  0
LINE
  5
45F9
330
384F
100
AcDbEntity
  8
AM_0
100
AcDbLine
 10
56.20000000000004
 20
99.99999999999905
 30
0.0
 11
56.19999999999976
 21
-99.99999999999891
 31
0.0
  0
LINE
  5
45FA
102
{ACAD_REACTORS
330
4615
102
}
330
384F
100
AcDbEntity
  8
AM_0
100
AcDbLine
 10
-46.19999999999968
 20
109.9999999999995
 30
0.0
 11
46.20000000000003
 21
109.999999999999
 31
0.0
  0
LINE
  5
45FB
330
384F
100
AcDbEntity
  8
AM_0
100
AcDbLine
 10
-56.19999999999999
 20
-99.99999999999914
 30
0.0
 11
-56.19999999999968
 21
99.99999999999957
 31
0.0
  0
LINE
  5
45FC
102
{ACAD_REACTORS
330
4615
102
}
330
384F
100
AcDbEntity
  8
AM_0
100
AcDbLine
 10
46.19999999999982
 20
-109.9999999999988
 30
0.0
 11
-46.19999999999999
 21
-109.9999999999991
 31
0.0
  0
LINE
  5
45FD
330
384F
100
AcDbEntity
  8
AM_0
100
AcDbLine
 10
-41.19999999999975
 20
95.99999999999949
 30
0.0
 11
-4.999999999999856
 21
95.99999999999935
 31
0.0
  0
LINE
  5
45FE
330
384F
100
AcDbEntity
  8
AM_0
100
AcDbLine
 10
5.000000000000142
 20
95.99999999999932
 30
0.0
 11
41.20000000000003
 21
95.99999999999914
 31
0.0
  0
ARC
  5
45FF
330
384F
100
AcDbEntity
  8
AM_0
100
AcDbCircle
 10
-42.19999999999975
 20
59.99999999999971
 30
0.0
 40
1.000000000000011
100
AcDbArc
 50
180.0
 51
205.8419327631325
  0
ARC
  5
4600
330
384F
100
AcDbEntity
  8
AM_0
100
AcDbCircle
 10
-41.19999999999975
 20
93.99999999999938
 30
0.0
 40
1.999999999999985
100
AcDbArc
 50
90.0
 51
180.0
  0
ARC
  5
4601
330
384F
100
AcDbEntity
  8
AM_0
100
AcDbCircle
 10
-4.999999999999856
 20
93.99999999999932
 30
0.0
 40
1.999999999999985
100
AcDbArc
 50
0.0
 51
90.0
  0
ARC
  5
4602
330
384F
100
AcDbEntity
  8
AM_0
100
AcDbCircle
 10
4.000000000000142
 20
59.99999999999954
 30
0.0
 40
0.9999999999999868
100
AcDbArc
 50
180.0
 51
205.8419327631216
  0
ARC
  5
4603
330
384F
100
AcDbEntity
  8
AM_0
100
AcDbCircle
 10
5.000000000000142
 20
93.99999999999932
 30
0.0
 40
1.999999999999985
100
AcDbArc
 50
90.0
 51
180.0
  0
ARC
  5
4604
330
384F
100
AcDbEntity
  8
AM_0
100
AcDbCircle
 10
41.20000000000003
 20
93.99999999999932
 30
0.0
 40
1.999999999999975
100
AcDbArc
 50
0.0
 51
90.0
  0
ARC
  5
4605
330
384F
100
AcDbEntity
  8
AM_0
100
AcDbCircle
 10
42.19999999999993
 20
59.9999999999995
 30
0.0
 40
0.9999999999999539
100
AcDbArc
 50
334.158067236826
 51
0.0
  0
LINE
  5
4606
330
384F
100
AcDbEntity
  8
AM_0
100
AcDbLine
 10
-43.19999999999976
 20
59.99999999999971
 30
0.0
 11
-43.19999999999976
 21
93.99999999999938
 31
0.0
  0
LINE
  5
4607
330
384F
100
AcDbEntity
  8
AM_0
100
AcDbLine
 10
-2.999999999999857
 20
93.99999999999932
 30
0.0
 11
-2.999999999999857
 21
59.99999999999954
 31
0.0
  0
LINE
  5
4608
330
384F
100
AcDbEntity
  8
AM_0
100
AcDbLine
 10
3.000000000000141
 20
59.99999999999954
 30
0.0
 11
3.000000000000226
 21
93.99999999999932
 31
0.0
  0
LINE
  5
4609
330
384F
100
AcDbEntity
  8
AM_0
100
AcDbLine
 10
43.20000000000002
 20
93.99999999999932
 30
0.0
 11
43.20000000000002
 21
59.9999999999995
 31
0.0
  0
LINE
  5
460A
330
384F
100
AcDbEntity
  8
AM_0
100
AcDbLine
 10
-43.10000000000001
 20
59.56411010564619
 30
0.0
 11
-43.10000000000001
 21
-96.99999999999945
 31
0.0
  0
LINE
  5
460B
330
384F
100
AcDbEntity
  8
AM_0
100
AcDbLine
 10
-3.100000000000021
 20
59.56411010564619
 30
0.0
 11
-3.100000000000021
 21
-96.99999999999945
 31
0.0
  0
LINE
  5
460C
102
{ACAD_REACTORS
330
4621
330
4624
102
}
330
384F
100
AcDbEntity
  8
AM_0
100
AcDbLine
 10
-43.10000000000001
 20
-96.99999999999945
 30
0.0
 11
-3.100000000000021
 21
-96.99999999999945
 31
0.0
  0
LINE
  5
460D
102
{ACAD_REACTORS
330
4624
102
}
330
384F
100
AcDbEntity
  8
AM_0
100
AcDbLine
 10
-43.19999999999976
 20
63.00000000000057
 30
0.0
 11
-2.999999999999857
 21
63.00000000000057
 31
0.0
  0
ARC
  5
460E
330
384F
100
AcDbEntity
  8
AM_0
100
AcDbCircle
 10
-4.000000000000283
 20
59.99999999999971
 30
0.0
 40
1.000000000000011
100
AcDbArc
 50
334.1580672368675
 51
0.0
  0
LINE
  5
460F
330
384F
100
AcDbEntity
  8
AM_0
100
AcDbLine
 10
43.09999999999984
 20
59.56411010564534
 30
0.0
 11
43.09999999999984
 21
-96.99999999999945
 31
0.0
  0
LINE
  5
4610
330
384F
100
AcDbEntity
  8
AM_0
100
AcDbLine
 10
3.099999999999821
 20
59.56411010564619
 30
0.0
 11
3.099999999999852
 21
-96.99999999999945
 31
0.0
  0
LINE
  5
4611
330
384F
100
AcDbEntity
  8
AM_0
100
AcDbLine
 10
43.09999999999984
 20
-96.99999999999945
 30
0.0
 11
3.099999999999852
 21
-96.99999999999945
 31
0.0
  0
LINE
  5
4612
330
384F
100
AcDbEntity
  8
AM_0
100
AcDbLine
 10
43.20000000000002
 20
63.0000000000005
 30
0.0
 11
3.00000000000017
 21
63.00000000000057
 31
0.0
  0
DIMENSION
  5
4613
102
{ACAD_XDICTIONARY
360
4614
102
}
102
{ACAD_REACTORS
330
4615
102
}
330
384F
100
AcDbEntity
  8
DIM
100
AcDbDimension
280
     0
  2
*D3
 10
-89.05322250367737
 20
-109.9999999999991
 30
0.0
 11
-92.47822250367738
 21
0.0000000000001705
 31
0.0
 12
-112.153002293891
 22
-153.7263659116839
 32
0.0
  1
<>
 71
     5
 42
219.9999999999986
 73
     0
 74
     0
 75
     0
  3
AM_ISO$0
100
AcDbAlignedDimension
 13
-46.19999999999968
 23
109.9999999999995
 33
0.0
 14
-46.19999999999886
 24
-109.9999999999991
 34
0.0
 50
90.0
100
AcDbRotatedDimension
1001
ACAD_DSTYLE_DIMINSPECT
1070
   396
1000
100%
1070
   395
1000

1070
   394
1070
    33
1070
   393
1070
     0
1001
ACAD
1000
DSTYLE
1002
{
1070
   170
1070
     1
1070
     3
1000

1070
   171
1070
     3
1002
}
  0
DIMENSION
  5
4616
102
{ACAD_XDICTIONARY
360
4617
102
}
102
{ACAD_REACTORS
330
4618
102
}
330
384F
100
AcDbEntity
  8
DIM
100
AcDbDimension
280
     0
  2
*D9
 10
-100.3211128292064
 20
-117.999999999999
 30
0.0
 11
-103.7478045857753
 21
0.0000000000001345
 31
0.0
 71
     5
 42
235.9999999999983
 73
     0
 74
     0
 75
     0
  3
AM_ISO$0
100
AcDbAlignedDimension
 13
-49.99999999999963
 23
117.9999999999993
 33
0.0
 14
-50.00000000000039
 24
-117.999999999999
 34
0.0
 50
90.0
100
AcDbRotatedDimension
1001
ACAD_DSTYLE_DIMINSPECT
1070
   396
1000
100%
1070
   395
1000

1070
   394
1070
    33
1070
   393
1070
     0
1001
ACAD
1000
DSTYLE
1002
{
1070
   170
1070
     1
1070
   171
1070
     3
1002
}
  0
DIMENSION
  5
4619
102
{ACAD_XDICTIONARY
360
461A
102
}
102
{ACAD_REACTORS
330
461B
102
}
330
384F
100
AcDbEntity
  8
DIM
100
AcDbDimension
280
     0
  2
*D4
 10
56.1999999999997
 20
-142.7263659749498
 30
0.0
 11
-0.0000000000001279
 21
-139.3013659749498
 31
0.0
 12
-112.153002293891
 22
-153.7263659116839
 32
0.0
 71
     5
 42
112.3999999999997
 73
     0
 74
     0
 75
     0
  3
AM_ISO$0
100
AcDbAlignedDimension
 13
-56.19999999999996
 23
-99.99999999999923
 33
0.0
 14
56.1999999999997
 24
-99.99999999999888
 34
0.0
100
AcDbRotatedDimension
1001
ACAD_DSTYLE_DIMINSPECT
1070
   396
1000
100%
1070
   395
1000

1070
   394
1070
    33
1070
   393
1070
     0
1001
ACAD
1000
DSTYLE
1002
{
1070
   170
1070
     1
1070
   171
1070
     3
1002
}
  0
DIMENSION
  5
461C
102
{ACAD_XDICTIONARY
360
461D
102
}
102
{ACAD_REACTORS
330
461E
102
}
330
384F
100
AcDbEntity
  8
DIM
100
AcDbDimension
280
     0
  2
*D5
 10
64.99999999999966
 20
-152.7263659749501
 30
0.0
 11
-0.0000000000000711
 21
-149.30136597495
 31
0.0
 12
-112.153002293891
 22
-153.7263659116839
 32
0.0
  1
<>
 71
     5
 42
129.9999999999994
 73
     0
 74
     0
 75
     0
  3
AM_ISO$0
100
AcDbAlignedDimension
 13
-64.9999999999998
 23
-102.9999999999991
 33
0.0
 14
64.99999999999966
 24
-102.9999999999994
 34
0.0
100
AcDbRotatedDimension
1001
ACAD_DSTYLE_DIMINSPECT
1070
   396
1000
100%
1070
   395
1000

1070
   394
1070
    33
1070
   393
1070
     0
1001
ACAD
1000
DSTYLE
1002
{
1070
   170
1070
     1
1070
     3
1000

1070
   171
1070
     3
1002
}
  0
DIMENSION
  5
461F
102
{ACAD_XDICTIONARY
360
4620
102
}
102
{ACAD_REACTORS
330
4621
102
}
330
384F
100
AcDbEntity
  8
DIM
100
AcDbDimension
280
     0
  2
*D6
 10
-3.100000000000021
 20
-132.7263659749501
 30
0.0
 11
-23.10000000000002
 21
-129.30136597495
 31
0.0
 12
-112.153002293891
 22
-153.7263659116839
 32
0.0
 71
     5
 42
40.0
 73
     0
 74
     0
 75
     0
  3
AM_ISO$0
100
AcDbAlignedDimension
 13
-43.10000000000001
 23
-96.99999999999945
 33
0.0
 14
-3.100000000000021
 24
-96.99999999999945
 34
0.0
100
AcDbRotatedDimension
1001
ACAD_DSTYLE_DIMINSPECT
1070
   396
1000
100%
1070
   395
1000

1070
   394
1070
    33
1070
   393
1070
     0
1001
ACAD
1000
DSTYLE
1002
{
1070
   170
1070
     1
1070
   171
1070
     3
1002
}
  0
DIMENSION
  5
4622
102
{ACAD_XDICTIONARY
360
4623
102
}
102
{ACAD_REACTORS
330
4624
102
}
330
384F
100
AcDbEntity
  8
DIM
100
AcDbDimension
280
     0
  2
*D7
 10
-79.05322250367894
 20
-96.99999999999945
 30
0.0
 11
-82.47991426024787
 21
-16.99999999999943
 31
0.0
 12
-112.153002293891
 22
-153.7263659116839
 32
0.0
  1
<>
 71
     5
 42
160.0
 73
     0
 74
     0
 75
     0
  3
AM_ISO$0
100
AcDbAlignedDimension
 13
-43.19999999999976
 23
63.00000000000057
 33
0.0
 14
-43.10000000000001
 24
-96.99999999999945
 34
0.0
 50
90.0
100
AcDbRotatedDimension
1001
ACAD_DSTYLE_DIMINSPECT
1070
   396
1000
100%
1070
   395
1000

1070
   394
1070
    33
1070
   393
1070
     0
1001
ACAD
1000
DSTYLE
1002
{
1070
   170
1070
     1
1070
     3
1000

1070
   171
1070
     3
1002
}
  0
LINE
  5
4625
330
384F
100
AcDbEntity
  8
Visible Edges(ISO)
100
AcDbLine
 10
-3.099999999999852
 20
92.18666385686599
 30
0.0
 11
-43.0999999999998
 21
92.18666385686599
 31
0.0
  0
LINE
  5
4626
330
384F
100
AcDbEntity
  8
Visible Edges(ISO)
100
AcDbLine
 10
-43.0999999999998
 20
66.61371669411614
 30
0.0
 11
-3.099999999999852
 21
66.61371669411614
 31
0.0
  0
CIRCLE
  5
4627
330
384F
100
AcDbEntity
  8
Visible Edges(ISO)
100
AcDbCircle
 10
-23.09999999999985
 20
79.50000000000063
 30
0.0
 40
10.0
  0
LINE
  5
4628
330
384F
100
AcDbEntity
  8
Visible Edges(ISO)
100
AcDbLine
 10
-26.85277674973241
 20
86.00000000000074
 30
0.0
 11
-30.60555349946492
 21
79.50000000000073
 31
0.0
  0
LINE
  5
4629
330
384F
100
AcDbEntity
  8
Visible Edges(ISO)
100
AcDbLine
 10
-19.34722325026723
 20
86.00000000000074
 30
0.0
 11
-26.85277674973241
 21
86.00000000000074
 31
0.0
  0
LINE
  5
462A
330
384F
100
AcDbEntity
  8
Visible Edges(ISO)
100
AcDbLine
 10
-15.59444650053473
 20
79.50000000000073
 30
0.0
 11
-19.34722325026723
 21
86.00000000000074
 31
0.0
  0
LINE
  5
462B
330
384F
100
AcDbEntity
  8
Visible Edges(ISO)
100
AcDbLine
 10
-19.34722325026723
 20
73.00000000000074
 30
0.0
 11
-15.59444650053473
 21
79.50000000000073
 31
0.0
  0
LINE
  5
462C
330
384F
100
AcDbEntity
  8
Visible Edges(ISO)
100
AcDbLine
 10
-26.85277674973241
 20
73.00000000000074
 30
0.0
 11
-19.34722325026723
 21
73.00000000000074
 31
0.0
  0
LINE
  5
462D
330
384F
100
AcDbEntity
  8
Visible Edges(ISO)
100
AcDbLine
 10
-30.60555349946492
 20
79.50000000000073
 30
0.0
 11
-26.85277674973241
 21
73.00000000000074
 31
0.0
  0
HATCH
  5
462E
330
384F
100
AcDbEntity
  8
AM_0
100
AcDbHatch
 10
0.0
 20
0.0
 30
0.0
210
0.0
220
0.0
230
1.0
  2
SOLID
 70
     1
 71
     1
 91
        1
 92
        7
 72
     0
 73
     1
 93
        4
 10
-3.099999999999853
 20
63.00000000000057
 10
-3.099999999999853
 20
64.00000000000057
 10
-43.0999999999998
 20
64.00000000000057
 10
-43.0999999999998
 20
63.00000000000057
 97
        4
330
4630
330
4634
330
462F
330
4633
 75
     1
 76
     1
 47
0.0635257714881428
 98
        1
 10
-16.04331003246511
 20
63.47980481949372
450
        0
451
        0
460
0.0
461
0.0
452
        0
462
1.0
453
        2
463
0.0
 63
     5
421
      255
463
1.0
 63
     2
421
 16776960
470
LINEAR
1001
GradientColor1ACI
1070
     5
1001
GradientColor2ACI
1070
     2
1001
ACAD
1010
0.0
1020
0.0
1030
0.0
  0
LINE
  5
462F
102
{ACAD_REACTORS
330
462E
102
}
330
384F
100
AcDbEntity
  8
AM_0
100
AcDbLine
 10
-43.0999999999998
 20
63.00000000000057
 30
0.0
 11
-3.099999999999852
 21
63.00000000000057
 31
0.0
  0
LINE
  5
4630
102
{ACAD_REACTORS
330
462E
102
}
330
384F
100
AcDbEntity
  8
AM_0
100
AcDbLine
 10
-43.0999999999998
 20
64.00000000000057
 30
0.0
 11
-3.099999999999852
 21
64.00000000000057
 31
0.0
  0
LINE
  5
4631
330
384F
100
AcDbEntity
  8
AM_0
100
AcDbLine
 10
-41.19999999999975
 20
96.00000000000058
 30
0.0
 11
-4.999999999999856
 21
96.00000000000051
 31
0.0
  0
HATCH
  5
4632
330
384F
100
AcDbEntity
  8
AM_0
100
AcDbHatch
 10
0.0
 20
0.0
 30
0.0
210
0.0
220
0.0
230
1.0
  2
SOLID
 70
     1
 71
     1
 91
        2
 92
        7
 72
     0
 73
     1
 93
        4
 10
-1.599999999999794
 20
64.00000000000057
 10
-3.099999999999851
 20
64.00000000000057
 10
-3.099999999999852
 20
63.00000000000057
 10
-1.599999999999794
 20
63.00000000000057
 97
        4
330
463A
330
4633
330
4638
330
4639
 92
        7
 72
     0
 73
     1
 93
        4
 10
-44.59999999999978
 20
64.00000000000057
 10
-44.59999999999978
 20
63.00000000000057
 10
-43.0999999999998
 20
63.00000000000057
 10
-43.0999999999998
 20
64.00000000000057
 97
        4
330
4637
330
4636
330
4635
330
4634
 75
     1
 76
     1
 47
0.0411045407145489
 98
        2
 10
-1.722256288722974
 20
63.23477995418642
 10
-43.97089852157978
 20
63.68692974388096
450
        0
451
        0
460
0.0
461
0.0
452
        0
462
1.0
453
        2
463
0.0
 63
     5
421
      255
463
1.0
 63
     2
421
 16776960
470
LINEAR
1001
GradientColor1ACI
1070
     5
1001
GradientColor2ACI
1070
     2
1001
ACAD
1010
0.0
1020
0.0
1030
0.0
  0
LINE
  5
4633
102
{ACAD_REACTORS
330
462E
330
4632
102
}
330
384F
100
AcDbEntity
  8
AM_0
100
AcDbLine
 10
-3.099999999999821
 20
94.62449979983905
 30
0.0
 11
-3.099999999999852
 21
63.00000000000057
 31
0.0
  0
LINE
  5
4634
102
{ACAD_REACTORS
330
462E
330
4632
102
}
330
384F
100
AcDbEntity
  8
AM_0
100
AcDbLine
 10
-43.0999999999998
 20
94.6244997998391
 30
0.0
 11
-43.0999999999998
 21
63.00000000000057
 31
0.0
  0
LINE
  5
4635
102
{ACAD_REACTORS
330
4632
102
}
330
384F
100
AcDbEntity
  8
AM_0
100
AcDbLine
 10
-43.0999999999998
 20
63.00000000000057
 30
0.0
 11
-44.59999999999978
 21
63.00000000000057
 31
0.0
  0
LINE
  5
4636
102
{ACAD_REACTORS
330
4632
102
}
330
384F
100
AcDbEntity
  8
AM_0
100
AcDbLine
 10
-44.59999999999978
 20
63.00000000000057
 30
0.0
 11
-44.59999999999978
 21
64.00000000000057
 31
0.0
  0
LINE
  5
4637
102
{ACAD_REACTORS
330
4632
102
}
330
384F
100
AcDbEntity
  8
AM_0
100
AcDbLine
 10
-44.59999999999978
 20
64.00000000000057
 30
0.0
 11
-43.0999999999998
 21
64.00000000000057
 31
0.0
  0
LINE
  5
4638
102
{ACAD_REACTORS
330
4632
102
}
330
384F
100
AcDbEntity
  8
AM_0
100
AcDbLine
 10
-3.099999999999793
 20
63.00000000000057
 30
0.0
 11
-1.599999999999794
 21
63.00000000000057
 31
0.0
  0
LINE
  5
4639
102
{ACAD_REACTORS
330
4632
102
}
330
384F
100
AcDbEntity
  8
AM_0
100
AcDbLine
 10
-1.599999999999794
 20
63.00000000000057
 30
0.0
 11
-1.599999999999794
 21
64.00000000000057
 31
0.0
  0
LINE
  5
463A
102
{ACAD_REACTORS
330
4632
102
}
330
384F
100
AcDbEntity
  8
AM_0
100
AcDbLine
 10
-1.599999999999794
 20
64.00000000000057
 30
0.0
 11
-3.099999999999793
 21
64.00000000000057
 31
0.0
  0
LINE
  5
463B
330
384F
100
AcDbEntity
  8
Visible Edges(ISO)
100
AcDbLine
 10
43.10000000000001
 20
92.18666385686594
 30
0.0
 11
3.100000000000108
 21
92.18666385686594
 31
0.0
  0
LINE
  5
463C
330
384F
100
AcDbEntity
  8
Visible Edges(ISO)
100
AcDbLine
 10
3.100000000000108
 20
66.61371669411606
 30
0.0
 11
43.10000000000001
 21
66.61371669411606
 31
0.0
  0
CIRCLE
  5
463D
330
384F
100
AcDbEntity
  8
Visible Edges(ISO)
100
AcDbCircle
 10
23.10000000000005
 20
79.50000000000057
 30
0.0
 40
10.0
  0
LINE
  5
463E
330
384F
100
AcDbEntity
  8
Visible Edges(ISO)
100
AcDbLine
 10
19.34722325026749
 20
86.00000000000068
 30
0.0
 11
15.59444650053498
 21
79.50000000000068
 31
0.0
  0
LINE
  5
463F
330
384F
100
AcDbEntity
  8
Visible Edges(ISO)
100
AcDbLine
 10
26.85277674973267
 20
86.00000000000068
 30
0.0
 11
19.34722325026749
 21
86.00000000000068
 31
0.0
  0
LINE
  5
4640
330
384F
100
AcDbEntity
  8
Visible Edges(ISO)
100
AcDbLine
 10
30.60555349946515
 20
79.50000000000068
 30
0.0
 11
26.85277674973267
 21
86.00000000000068
 31
0.0
  0
LINE
  5
4641
330
384F
100
AcDbEntity
  8
Visible Edges(ISO)
100
AcDbLine
 10
26.85277674973267
 20
73.00000000000068
 30
0.0
 11
30.60555349946515
 21
79.50000000000068
 31
0.0
  0
LINE
  5
4642
330
384F
100
AcDbEntity
  8
Visible Edges(ISO)
100
AcDbLine
 10
19.34722325026749
 20
73.00000000000068
 30
0.0
 11
26.85277674973267
 21
73.00000000000068
 31
0.0
  0
LINE
  5
4643
330
384F
100
AcDbEntity
  8
Visible Edges(ISO)
100
AcDbLine
 10
15.59444650053498
 20
79.50000000000068
 30
0.0
 11
19.34722325026749
 21
73.00000000000068
 31
0.0
  0
HATCH
  5
4644
330
384F
100
AcDbEntity
  8
AM_0
100
AcDbHatch
 10
0.0
 20
0.0
 30
0.0
210
0.0
220
0.0
230
1.0
  2
SOLID
 70
     1
 71
     1
 91
        1
 92
        7
 72
     0
 73
     1
 93
        4
 10
43.10000000000001
 20
63.0000000000005
 10
43.10000000000001
 20
64.00000000000051
 10
3.100000000000108
 20
64.00000000000051
 10
3.100000000000111
 20
63.0000000000005
 97
        4
330
4646
330
464A
330
4645
330
4649
 75
     1
 76
     1
 47
0.0635257714881428
 98
        1
 10
30.15668996753482
 20
63.47980481949367
450
        0
451
        0
460
0.0
461
0.0
452
        0
462
1.0
453
        2
463
0.0
 63
     5
421
      255
463
1.0
 63
     2
421
 16776960
470
LINEAR
1001
GradientColor1ACI
1070
     5
1001
GradientColor2ACI
1070
     2
1001
ACAD
1010
0.0
1020
0.0
1030
0.0
  0
LINE
  5
4645
102
{ACAD_REACTORS
330
4644
102
}
330
384F
100
AcDbEntity
  8
AM_0
100
AcDbLine
 10
3.100000000000108
 20
63.0000000000005
 30
0.0
 11
43.10000000000001
 21
63.0000000000005
 31
0.0
  0
LINE
  5
4646
102
{ACAD_REACTORS
330
4644
102
}
330
384F
100
AcDbEntity
  8
AM_0
100
AcDbLine
 10
3.100000000000108
 20
64.00000000000051
 30
0.0
 11
43.10000000000001
 21
64.00000000000051
 31
0.0
  0
LINE
  5
4647
330
384F
100
AcDbEntity
  8
AM_0
100
AcDbLine
 10
5.000000000000142
 20
96.00000000000051
 30
0.0
 11
41.20000000000003
 21
96.00000000000058
 31
0.0
  0
HATCH
  5
4648
330
384F
100
AcDbEntity
  8
AM_0
100
AcDbHatch
 10
0.0
 20
0.0
 30
0.0
210
0.0
220
0.0
230
1.0
  2
SOLID
 70
     1
 71
     1
 91
        2
 92
        7
 72
     0
 73
     1
 93
        4
 10
44.60000000000014
 20
64.00000000000051
 10
43.10000000000001
 20
64.00000000000051
 10
43.10000000000001
 20
63.0000000000005
 10
44.60000000000014
 20
63.0000000000005
 97
        4
330
4650
330
4649
330
464E
330
464F
 92
        7
 72
     0
 73
     1
 93
        4
 10
1.600000000000108
 20
64.00000000000051
 10
1.6000000000001
 20
63.0000000000005
 10
3.100000000000115
 20
63.0000000000005
 10
3.100000000000115
 20
64.00000000000051
 97
        4
330
464D
330
464C
330
464B
330
464A
 75
     1
 76
     1
 47
0.0411045407145489
 98
        2
 10
44.47774371127695
 20
63.23477995418636
 10
2.229101478420119
 20
63.68692974388091
450
        0
451
        0
460
0.0
461
0.0
452
        0
462
1.0
453
        2
463
0.0
 63
     5
421
      255
463
1.0
 63
     2
421
 16776960
470
LINEAR
1001
GradientColor1ACI
1070
     5
1001
GradientColor2ACI
1070
     2
1001
ACAD
1010
0.0
1020
0.0
1030
0.0
  0
LINE
  5
4649
102
{ACAD_REACTORS
330
4644
330
4648
102
}
330
384F
100
AcDbEntity
  8
AM_0
100
AcDbLine
 10
43.10000000000001
 20
94.62449979983921
 30
0.0
 11
43.10000000000001
 21
63.0000000000005
 31
0.0
  0
LINE
  5
464A
102
{ACAD_REACTORS
330
4644
330
4648
102
}
330
384F
100
AcDbEntity
  8
AM_0
100
AcDbLine
 10
3.100000000000108
 20
94.62449979983905
 30
0.0
 11
3.100000000000108
 21
63.0000000000005
 31
0.0
  0
LINE
  5
464B
102
{ACAD_REACTORS
330
4648
102
}
330
384F
100
AcDbEntity
  8
AM_0
100
AcDbLine
 10
3.100000000000108
 20
63.0000000000005
 30
0.0
 11
1.600000000000108
 21
63.0000000000005
 31
0.0
  0
LINE
  5
464C
102
{ACAD_REACTORS
330
4648
102
}
330
384F
100
AcDbEntity
  8
AM_0
100
AcDbLine
 10
1.600000000000108
 20
63.0000000000005
 30
0.0
 11
1.600000000000108
 21
64.00000000000051
 31
0.0
  0
LINE
  5
464D
102
{ACAD_REACTORS
330
4648
102
}
330
384F
100
AcDbEntity
  8
AM_0
100
AcDbLine
 10
1.600000000000108
 20
64.00000000000051
 30
0.0
 11
3.100000000000108
 21
64.00000000000051
 31
0.0
  0
LINE
  5
464E
102
{ACAD_REACTORS
330
4648
102
}
330
384F
100
AcDbEntity
  8
AM_0
100
AcDbLine
 10
43.10000000000013
 20
63.0000000000005
 30
0.0
 11
44.60000000000014
 21
63.0000000000005
 31
0.0
  0
LINE
  5
464F
102
{ACAD_REACTORS
330
4648
102
}
330
384F
100
AcDbEntity
  8
AM_0
100
AcDbLine
 10
44.60000000000014
 20
63.0000000000005
 30
0.0
 11
44.60000000000014
 21
64.00000000000051
 31
0.0
  0
LINE
  5
4650
102
{ACAD_REACTORS
330
4648
102
}
330
384F
100
AcDbEntity
  8
AM_0
100
AcDbLine
 10
44.60000000000014
 20
64.00000000000051
 30
0.0
 11
43.10000000000013
 21
64.00000000000051
 31
0.0
  0
LINE
  5
4651
330
384F
100
AcDbEntity
  8
Visible Edges(ISO)
100
AcDbLine
 10
40.43938307541185
 20
-105.3289575207132
 30
0.0
 11
41.43088890631651
 21
-106.4803089178151
 31
0.0
  0
LINE
  5
4652
330
384F
100
AcDbEntity
  8
Visible Edges(ISO)
100
AcDbLine
 10
41.43088890631651
 20
-106.4803089178151
 30
0.0
 11
40.87490432823909
 21
-106.4803089178151
 31
0.0
  0
LINE
  5
4653
330
384F
100
AcDbEntity
  8
Visible Edges(ISO)
100
AcDbLine
 10
40.87490432823909
 20
-106.4803089178151
 30
0.0
 11
40.3235529549791
 21
-105.8038610144876
 31
0.0
  0
LINE
  5
4654
330
384F
100
AcDbEntity
  8
Visible Edges(ISO)
100
AcDbLine
 10
40.3235529549791
 20
-105.8038610144876
 30
0.0
 11
40.18224020805103
 21
-105.6254826290211
 31
0.0
  0
LINE
  5
4655
330
384F
100
AcDbEntity
  8
Visible Edges(ISO)
100
AcDbLine
 10
40.18224020805103
 20
-105.6254826290211
 30
0.0
 11
39.47799307581971
 21
-106.4803089178151
 31
0.0
  0
LINE
  5
4656
330
384F
100
AcDbEntity
  8
Visible Edges(ISO)
100
AcDbLine
 10
39.47799307581971
 20
-106.4803089178151
 30
0.0
 11
38.92895830496826
 21
-106.4803089178151
 31
0.0
  0
LINE
  5
4657
330
384F
100
AcDbEntity
  8
Visible Edges(ISO)
100
AcDbLine
 10
38.92895830496826
 20
-106.4803089178151
 30
0.0
 11
39.90424791901245
 21
-105.3498069423911
 31
0.0
  0
LINE
  5
4658
330
384F
100
AcDbEntity
  8
Visible Edges(ISO)
100
AcDbLine
 10
39.90424791901245
 20
-105.3498069423911
 30
0.0
 11
39.005406184454
 21
-104.307335858496
 31
0.0
  0
LINE
  5
4659
330
384F
100
AcDbEntity
  8
Visible Edges(ISO)
100
AcDbLine
 10
39.005406184454
 20
-104.307335858496
 30
0.0
 11
39.5706571721659
 21
-104.307335858496
 31
0.0
  0
LINE
  5
465A
330
384F
100
AcDbEntity
  8
Visible Edges(ISO)
100
AcDbLine
 10
39.5706571721659
 20
-104.307335858496
 30
0.0
 11
39.98069579849806
 21
-104.8146717859916
 31
0.0
  0
SPLINE
  5
465B
330
384F
100
AcDbEntity
  8
Visible Edges(ISO)
100
AcDbSpline
210
0.0
220
0.0
230
1.0
 70
     8
 71
     2
 72
     6
 73
     3
 74
     0
 42
0.000000001
 43
0.0000000001
 40
0.0
 40
0.0
 40
0.0
 40
1.0
 40
1.0
 40
1.0
 10
39.98069579849806
 20
-104.8146717859916
 30
0.0
 10
40.09420931652215
 20
-104.9536679305109
 30
0.0
 10
40.16602399119057
 20
-105.0555984364918
 30
0.0
  0
SPLINE
  5
465C
330
384F
100
AcDbEntity
  8
Visible Edges(ISO)
100
AcDbSpline
210
0.0
220
0.0
230
1.0
 70
     8
 71
     2
 72
     6
 73
     3
 74
     0
 42
0.000000001
 43
0.0000000001
 40
0.0
 40
0.0
 40
0.0
 40
1.0
 40
1.0
 40
1.0
 10
40.16602399119057
 20
-105.0555984364918
 30
0.0
 10
40.27722090680611
 20
-104.9212354967897
 30
0.0
 10
40.36756840074354
 20
-104.8216215932175
 30
0.0
  0
LINE
  5
465D
330
384F
100
AcDbEntity
  8
Visible Edges(ISO)
100
AcDbLine
 10
40.36756840074354
 20
-104.8216215932175
 30
0.0
 11
40.81467266561418
 21
-104.307335858496
 31
0.0
  0
LINE
  5
465E
330
384F
100
AcDbEntity
  8
Visible Edges(ISO)
100
AcDbLine
 10
40.81467266561418
 20
-104.307335858496
 30
0.0
 11
41.3590742316482
 21
-104.307335858496
 31
0.0
  0
LINE
  5
465F
330
384F
100
AcDbEntity
  8
Visible Edges(ISO)
100
AcDbLine
 10
41.3590742316482
 20
-104.307335858496
 30
0.0
 11
40.43938307541185
 21
-105.3289575207132
 31
0.0
  0
SPLINE
  5
4660
330
384F
100
AcDbEntity
  8
Visible Edges(ISO)
100
AcDbSpline
210
0.0
220
0.0
230
1.0
 70
     8
 71
     2
 72
     8
 73
     5
 74
     0
 42
0.000000001
 43
0.0000000001
 40
0.0
 40
0.0
 40
0.0
 40
1.0
 40
2.0
 40
3.0
 40
3.0
 40
3.0
 10
26.56293464756362
 20
-104.9629343401456
 30
0.0
 10
26.56293464756362
 20
-105.4725868700498
 30
0.0
 10
26.11351378028434
 20
-106.1837838095071
 30
0.0
 10
25.41158325046155
 20
-106.4803089178151
 30
0.0
 10
24.84169905793232
 20
-106.4803089178151
 30
0.0
  0
LINE
  5
4661
330
384F
100
AcDbEntity
  8
Visible Edges(ISO)
100
AcDbLine
 10
24.84169905793232
 20
-106.4803089178151
 30
0.0
 11
23.50965267295515
 21
-106.4803089178151
 31
0.0
  0
LINE
  5
4662
330
384F
100
AcDbEntity
  8
Visible Edges(ISO)
100
AcDbLine
 10
23.50965267295515
 20
-106.4803089178151
 30
0.0
 11
23.50965267295515
 21
-103.4803087986058
 31
0.0
  0
LINE
  5
4663
330
384F
100
AcDbEntity
  8
Visible Edges(ISO)
100
AcDbLine
 10
23.50965267295515
 20
-103.4803087986058
 30
0.0
 11
24.78378399771583
 21
-103.4803087986058
 31
0.0
  0
SPLINE
  5
4664
330
384F
100
AcDbEntity
  8
Visible Edges(ISO)
100
AcDbSpline
210
0.0
220
0.0
230
1.0
 70
     8
 71
     2
 72
     6
 73
     3
 74
     0
 42
0.000000001
 43
0.0000000001
 40
0.0
 40
0.0
 40
0.0
 40
1.0
 40
1.0
 40
1.0
 10
24.78378399771583
 20
-103.4803087986058
 30
0.0
 10
25.25637088908168
 20
-103.4803087986058
 30
0.0
 10
25.50424734680786
 20
-103.5359072564135
 30
0.0
  0
SPLINE
  5
4665
330
384F
100
AcDbEntity
  8
Visible Edges(ISO)
100
AcDbSpline
210
0.0
220
0.0
230
1.0
 70
     8
 71
     2
 72
     8
 73
     5
 74
     0
 42
0.000000001
 43
0.0000000001
 40
0.0
 40
0.0
 40
0.0
 40
1.0
 40
2.0
 40
3.0
 40
3.0
 40
3.0
 10
25.50424734680786
 20
-103.5359072564135
 30
0.0
 10
25.8262550816109
 20
-103.6077219310819
 30
0.0
 10
26.29884197297673
 20
-103.9876447261014
 30
0.0
 10
26.56293464756362
 20
-104.5667953282654
 30
0.0
 10
26.56293464756362
 20
-104.9629343401456
 30
0.0
  0
LINE
  5
4666
330
384F
100
AcDbEntity
  8
Visible Edges(ISO)
100
AcDbLine
 10
22.20308891447331
 20
-106.4803089178151
 30
0.0
 11
22.20308891447331
 21
-105.067181448535
 31
0.0
  0
LINE
  5
4667
330
384F
100
AcDbEntity
  8
Visible Edges(ISO)
100
AcDbLine
 10
22.20308891447331
 20
-105.067181448535
 30
0.0
 11
20.28494212010622
 21
-105.067181448535
 31
0.0
  0
LINE
  5
4668
330
384F
100
AcDbEntity
  8
Visible Edges(ISO)
100
AcDbLine
 10
20.28494212010622
 20
-105.067181448535
 30
0.0
 11
20.28494212010622
 21
-106.4803089178151
 31
0.0
  0
LINE
  5
4669
330
384F
100
AcDbEntity
  8
Visible Edges(ISO)
100
AcDbLine
 10
20.28494212010622
 20
-106.4803089178151
 30
0.0
 11
19.7961390118798
 21
-106.4803089178151
 31
0.0
  0
LINE
  5
466A
330
384F
100
AcDbEntity
  8
Visible Edges(ISO)
100
AcDbLine
 10
19.7961390118798
 20
-106.4803089178151
 30
0.0
 11
19.7961390118798
 21
-103.4803087986058
 31
0.0
  0
LINE
  5
466B
330
384F
100
AcDbEntity
  8
Visible Edges(ISO)
100
AcDbLine
 10
19.7961390118798
 20
-103.4803087986058
 30
0.0
 11
20.28494212010622
 21
-103.4803087986058
 31
0.0
  0
LINE
  5
466C
330
384F
100
AcDbEntity
  8
Visible Edges(ISO)
100
AcDbLine
 10
20.28494212010622
 20
-103.4803087986058
 30
0.0
 11
20.28494212010622
 21
-104.7127412800107
 31
0.0
  0
LINE
  5
466D
330
384F
100
AcDbEntity
  8
Visible Edges(ISO)
100
AcDbLine
 10
20.28494212010622
 20
-104.7127412800107
 30
0.0
 11
22.20308891447331
 21
-104.7127412800107
 31
0.0
  0
LINE
  5
466E
330
384F
100
AcDbEntity
  8
Visible Edges(ISO)
100
AcDbLine
 10
22.20308891447331
 20
-104.7127412800107
 30
0.0
 11
22.20308891447331
 21
-103.4803087986058
 31
0.0
  0
LINE
  5
466F
330
384F
100
AcDbEntity
  8
Visible Edges(ISO)
100
AcDbLine
 10
22.20308891447331
 20
-103.4803087986058
 30
0.0
 11
22.69189202269962
 21
-103.4803087986058
 31
0.0
  0
LINE
  5
4670
330
384F
100
AcDbEntity
  8
Visible Edges(ISO)
100
AcDbLine
 10
22.69189202269962
 20
-103.4803087986058
 30
0.0
 11
22.69189202269962
 21
-106.4803089178151
 31
0.0
  0
LINE
  5
4671
330
384F
100
AcDbEntity
  8
Visible Edges(ISO)
100
AcDbLine
 10
22.69189202269962
 20
-106.4803089178151
 30
0.0
 11
22.20308891447331
 21
-106.4803089178151
 31
0.0
  0
SPLINE
  5
4672
330
384F
100
AcDbEntity
  8
Visible Edges(ISO)
100
AcDbSpline
210
0.0
220
0.0
230
1.0
 70
     8
 71
     2
 72
     7
 73
     4
 74
     0
 42
0.000000001
 43
0.0000000001
 40
0.0
 40
0.0
 40
0.0
 40
1.0
 40
2.0
 40
2.0
 40
2.0
 10
29.65559886311911
 20
-103.7722007020964
 30
0.0
 10
29.39382279094099
 20
-103.7722007020964
 30
0.0
 10
29.0324328151907
 20
-104.0409265815005
 30
0.0
 10
28.98378416460884
 20
-104.3119690633132
 30
0.0
  0
LINE
  5
4673
330
384F
100
AcDbEntity
  8
Visible Edges(ISO)
100
AcDbLine
 10
28.98378416460884
 20
-104.3119690633132
 30
0.0
 11
28.53204669492101
 21
-104.2471041958709
 31
0.0
  0
SPLINE
  5
4674
330
384F
100
AcDbEntity
  8
Visible Edges(ISO)
100
AcDbSpline
210
0.0
220
0.0
230
1.0
 70
     8
 71
     2
 72
     7
 73
     4
 74
     0
 42
0.000000001
 43
0.0000000001
 40
0.0
 40
0.0
 40
0.0
 40
1.0
 40
2.0
 40
2.0
 40
2.0
 10
28.53204669492101
 20
-104.2471041958709
 30
0.0
 10
28.61776098404124
 20
-103.862548196034
 30
0.0
 10
29.22007761029176
 20
-103.4687257865625
 30
0.0
 10
29.64633245348449
 20
-103.4687257865625
 30
0.0
  0
SPLINE
  5
4675
330
384F
100
AcDbEntity
  8
Visible Edges(ISO)
100
AcDbSpline
210
0.0
220
0.0
230
1.0
 70
     8
 71
     2
 72
     7
 73
     4
 74
     0
 42
0.000000001
 43
0.0000000001
 40
0.0
 40
0.0
 40
0.0
 40
1.0
 40
2.0
 40
2.0
 40
2.0
 10
29.64633245348449
 20
-103.4687257865625
 30
0.0
 10
30.09575332076366
 20
-103.4687257865625
 30
0.0
 10
30.72123597110084
 20
-103.9111968466158
 30
0.0
 10
30.72123597110084
 20
-104.2447875934622
 30
0.0
  0
SPLINE
  5
4676
330
384F
100
AcDbEntity
  8
Visible Edges(ISO)
100
AcDbSpline
210
0.0
220
0.0
230
1.0
 70
     8
 71
     2
 72
     7
 73
     4
 74
     0
 42
0.000000001
 43
0.0000000001
 40
0.0
 40
0.0
 40
0.0
 40
1.0
 40
2.0
 40
2.0
 40
2.0
 10
30.72123597110084
 20
-104.2447875934622
 30
0.0
 10
30.72123597110084
 20
-104.4509652078326
 30
0.0
 10
30.45482669410529
 20
-104.7660231354098
 30
0.0
 10
30.21853324842249
 20
-104.8540540269387
 30
0.0
  0
SPLINE
  5
4677
330
384F
100
AcDbEntity
  8
Visible Edges(ISO)
100
AcDbSpline
210
0.0
220
0.0
230
1.0
 70
     8
 71
     2
 72
     8
 73
     5
 74
     0
 42
0.000000001
 43
0.0000000001
 40
0.0
 40
0.0
 40
0.0
 40
1.0
 40
2.0
 40
3.0
 40
3.0
 40
3.0
 10
30.21853324842249
 20
-104.8540540269387
 30
0.0
 10
30.43861047724471
 20
-104.8957528702945
 30
0.0
 10
30.72586917591804
 20
-105.0833976653956
 30
0.0
 10
30.90193095897593
 20
-105.3984555929728
 30
0.0
 10
30.90193095897593
 20
-105.5930501952999
 30
0.0
  0
SPLINE
  5
4678
330
384F
100
AcDbEntity
  8
Visible Edges(ISO)
100
AcDbSpline
210
0.0
220
0.0
230
1.0
 70
     8
 71
     2
 72
     7
 73
     4
 74
     0
 42
0.000000001
 43
0.0000000001
 40
0.0
 40
0.0
 40
0.0
 40
1.0
 40
2.0
 40
2.0
 40
2.0
 10
30.90193095897593
 20
-105.5930501952999
 30
0.0
 10
30.90193095897593
 20
-106.0054054240406
 30
0.0
 10
30.17220120024939
 20
-106.5312741708055
 30
0.0
 10
29.66254867034507
 20
-106.5312741708055
 30
0.0
  0
SPLINE
  5
4679
330
384F
100
AcDbEntity
  8
Visible Edges(ISO)
100
AcDbSpline
210
0.0
220
0.0
230
1.0
 70
     8
 71
     2
 72
     7
 73
     4
 74
     0
 42
0.000000001
 43
0.0000000001
 40
0.0
 40
0.0
 40
0.0
 40
1.0
 40
2.0
 40
2.0
 40
2.0
 10
29.66254867034507
 20
-106.5312741708055
 30
0.0
 10
29.18764517657058
 20
-106.5312741708055
 30
0.0
 10
28.53204669492101
 20
-106.0725868938917
 30
0.0
 10
28.48571464674791
 20
-105.6857142916461
 30
0.0
  0
LINE
  5
467A
330
384F
100
AcDbEntity
  8
Visible Edges(ISO)
100
AcDbLine
 10
28.48571464674791
 20
-105.6857142916461
 30
0.0
 11
28.93745211643574
 21
-105.6370656410644
 31
0.0
  0
SPLINE
  5
467B
330
384F
100
AcDbEntity
  8
Visible Edges(ISO)
100
AcDbSpline
210
0.0
220
0.0
230
1.0
 70
     8
 71
     2
 72
     6
 73
     3
 74
     0
 42
0.000000001
 43
0.0000000001
 40
0.0
 40
0.0
 40
0.0
 40
1.0
 40
1.0
 40
1.0
 10
28.93745211643574
 20
-105.6370656410644
 30
0.0
 10
29.0787648633638
 20
-106.2277992552716
 30
0.0
 10
29.65328226071034
 20
-106.2277992552716
 30
0.0
  0
SPLINE
  5
467C
330
384F
100
AcDbEntity
  8
Visible Edges(ISO)
100
AcDbSpline
210
0.0
220
0.0
230
1.0
 70
     8
 71
     2
 72
     7
 73
     4
 74
     0
 42
0.000000001
 43
0.0000000001
 40
0.0
 40
0.0
 40
0.0
 40
1.0
 40
2.0
 40
2.0
 40
2.0
 10
29.65328226071034
 20
-106.2277992552716
 30
0.0
 10
29.96370698347033
 20
-106.2277992552716
 30
0.0
 10
30.42007765797547
 20
-105.8779922915646
 30
0.0
 10
30.42007765797547
 20
-105.6000000025259
 30
0.0
  0
SPLINE
  5
467D
330
384F
100
AcDbEntity
  8
Visible Edges(ISO)
100
AcDbSpline
210
0.0
220
0.0
230
1.0
 70
     8
 71
     2
 72
     7
 73
     4
 74
     0
 42
0.000000001
 43
0.0000000001
 40
0.0
 40
0.0
 40
0.0
 40
1.0
 40
2.0
 40
2.0
 40
2.0
 10
30.42007765797547
 20
-105.6000000025259
 30
0.0
 10
30.42007765797547
 20
-105.3382239303478
 30
0.0
 10
30.00308922441746
 20
-105.0185327979533
 30
0.0
 10
29.69961430888356
 20
-105.0185327979533
 30
0.0
  0
SPLINE
  5
467E
330
384F
100
AcDbEntity
  8
Visible Edges(ISO)
100
AcDbSpline
210
0.0
220
0.0
230
1.0
 70
     8
 71
     2
 72
     6
 73
     3
 74
     0
 42
0.000000001
 43
0.0000000001
 40
0.0
 40
0.0
 40
0.0
 40
1.0
 40
1.0
 40
1.0
 10
29.69961430888356
 20
-105.0185327979533
 30
0.0
 10
29.56988457399877
 20
-105.0185327979533
 30
0.0
 10
29.37992317648906
 20
-105.0602316413091
 30
0.0
  0
LINE
  5
467F
330
384F
100
AcDbEntity
  8
Visible Edges(ISO)
100
AcDbLine
 10
29.37992317648906
 20
-105.0602316413091
 30
0.0
 11
29.43320503188801
 21
-104.7359073040972
 31
0.0
  0
LINE
  5
4680
330
384F
100
AcDbEntity
  8
Visible Edges(ISO)
100
AcDbLine
 10
29.43320503188801
 20
-104.7359073040972
 30
0.0
 11
29.50501970655643
 21
-104.7405405089146
 31
0.0
  0
SPLINE
  5
4681
330
384F
100
AcDbEntity
  8
Visible Edges(ISO)
100
AcDbSpline
210
0.0
220
0.0
230
1.0
 70
     8
 71
     2
 72
     7
 73
     4
 74
     0
 42
0.000000001
 43
0.0000000001
 40
0.0
 40
0.0
 40
0.0
 40
1.0
 40
2.0
 40
2.0
 40
2.0
 10
29.50501970655643
 20
-104.7405405089146
 30
0.0
 10
29.83861045340285
 20
-104.7405405089146
 30
0.0
 10
30.25791548936951
 20
-104.4671814246932
 30
0.0
 10
30.25791548936951
 20
-104.2378377862363
 30
0.0
  0
SPLINE
  5
4682
330
384F
100
AcDbEntity
  8
Visible Edges(ISO)
100
AcDbSpline
210
0.0
220
0.0
230
1.0
 70
     8
 71
     2
 72
     7
 73
     4
 74
     0
 42
0.000000001
 43
0.0000000001
 40
0.0
 40
0.0
 40
0.0
 40
1.0
 40
2.0
 40
2.0
 40
2.0
 10
30.25791548936951
 20
-104.2378377862363
 30
0.0
 10
30.25791548936951
 20
-104.0270269670486
 30
0.0
 10
29.9081085256625
 20
-103.7722007020964
 30
0.0
 10
29.65559886311911
 20
-103.7722007020964
 30
0.0
  0
SPLINE
  5
4683
330
384F
100
AcDbEntity
  8
Visible Edges(ISO)
100
AcDbSpline
210
0.0
220
0.0
230
1.0
 70
     8
 71
     2
 72
     7
 73
     4
 74
     0
 42
0.000000001
 43
0.0000000001
 40
0.0
 40
0.0
 40
0.0
 40
1.0
 40
2.0
 40
2.0
 40
2.0
 10
32.59073411488595
 20
-103.4687257865625
 30
0.0
 10
33.15366850018933
 20
-103.4687257865625
 30
0.0
 10
33.73513570476195
 20
-103.9760617140581
 30
0.0
 10
33.73513570476195
 20
-104.2980694488613
 30
0.0
  0
SPLINE
  5
4684
330
384F
100
AcDbEntity
  8
Visible Edges(ISO)
100
AcDbSpline
210
0.0
220
0.0
230
1.0
 70
     8
 71
     2
 72
     7
 73
     4
 74
     0
 42
0.000000001
 43
0.0000000001
 40
0.0
 40
0.0
 40
0.0
 40
1.0
 40
2.0
 40
2.0
 40
2.0
 10
33.73513570476195
 20
-104.2980694488613
 30
0.0
 10
33.73513570476195
 20
-104.5853281475346
 30
0.0
 10
33.28108163266546
 20
-105.1111968942995
 30
0.0
 10
32.64633257269378
 20
-105.5490347495354
 30
0.0
  0
SPLINE
  5
4685
330
384F
100
AcDbEntity
  8
Visible Edges(ISO)
100
AcDbSpline
210
0.0
220
0.0
230
1.0
 70
     8
 71
     2
 72
     7
 73
     4
 74
     0
 42
0.000000001
 43
0.0000000001
 40
0.0
 40
0.0
 40
0.0
 40
1.0
 40
2.0
 40
2.0
 40
2.0
 10
32.64633257269378
 20
-105.5490347495354
 30
0.0
 10
32.24092715117894
 20
-105.8247104361655
 30
0.0
 10
32.00463370549602
 20
-106.0262548457186
 30
0.0
 10
31.93050242841906
 20
-106.1258687492908
 30
0.0
  0
LINE
  5
4686
330
384F
100
AcDbEntity
  8
Visible Edges(ISO)
100
AcDbLine
 10
31.93050242841906
 20
-106.1258687492907
 30
0.0
 11
33.74208551198802
 21
-106.1258687492908
 31
0.0
  0
LINE
  5
4687
330
384F
100
AcDbEntity
  8
Visible Edges(ISO)
100
AcDbLine
 10
33.74208551198802
 20
-106.1258687492908
 30
0.0
 11
33.74208551198802
 21
-106.4803089178151
 31
0.0
  0
LINE
  5
4688
330
384F
100
AcDbEntity
  8
Visible Edges(ISO)
100
AcDbLine
 10
33.74208551198802
 20
-106.4803089178151
 30
0.0
 11
31.30038657326458
 21
-106.4803089178151
 31
0.0
  0
SPLINE
  5
4689
330
384F
100
AcDbEntity
  8
Visible Edges(ISO)
100
AcDbSpline
210
0.0
220
0.0
230
1.0
 70
     8
 71
     2
 72
     7
 73
     4
 74
     0
 42
0.000000001
 43
0.0000000001
 40
0.0
 40
0.0
 40
0.0
 40
1.0
 40
2.0
 40
2.0
 40
2.0
 10
31.30038657326458
 20
-106.4803089178151
 30
0.0
 10
31.29112016363007
 20
-106.2648648938101
 30
0.0
 10
31.69884218755345
 20
-105.7320463398193
 30
0.0
 10
32.24324375358759
 20
-105.3706563640689
 30
0.0
  0
SPLINE
  5
468A
330
384F
100
AcDbEntity
  8
Visible Edges(ISO)
100
AcDbSpline
210
0.0
220
0.0
230
1.0
 70
     8
 71
     2
 72
     7
 73
     4
 74
     0
 42
0.000000001
 43
0.0000000001
 40
0.0
 40
0.0
 40
0.0
 40
1.0
 40
2.0
 40
2.0
 40
2.0
 10
32.24324375358759
 20
-105.3706563640689
 30
0.0
 10
32.87799281355928
 20
-104.9490347256936
 30
0.0
 10
33.27181522303073
 20
-104.4880308463711
 30
0.0
 10
33.27181522303073
 20
-104.2911196416353
 30
0.0
  0
SPLINE
  5
468B
330
384F
100
AcDbEntity
  8
Visible Edges(ISO)
100
AcDbSpline
210
0.0
220
0.0
230
1.0
 70
     8
 71
     2
 72
     7
 73
     4
 74
     0
 42
0.000000001
 43
0.0000000001
 40
0.0
 40
0.0
 40
0.0
 40
1.0
 40
2.0
 40
2.0
 40
2.0
 10
33.27181522303073
 20
-104.2911196416353
 30
0.0
 10
33.27181522303073
 20
-104.0617760031784
 30
0.0
 10
32.86872640392465
 20
-103.7722007020964
 30
0.0
 10
32.57451789802536
 20
-103.7722007020964
 30
0.0
  0
SPLINE
  5
468C
330
384F
100
AcDbEntity
  8
Visible Edges(ISO)
100
AcDbSpline
210
0.0
220
0.0
230
1.0
 70
     8
 71
     2
 72
     7
 73
     4
 74
     0
 42
0.000000001
 43
0.0000000001
 40
0.0
 40
0.0
 40
0.0
 40
1.0
 40
2.0
 40
2.0
 40
2.0
 10
32.57451789802536
 20
-103.7722007020964
 30
0.0
 10
32.25945997044829
 20
-103.7722007020964
 30
0.0
 10
31.85405454893345
 20
-104.084942027265
 30
0.0
 10
31.85405454893345
 20
-104.3768339307556
 30
0.0
  0
LINE
  5
468D
330
384F
100
AcDbEntity
  8
Visible Edges(ISO)
100
AcDbLine
 10
31.85405454893345
 20
-104.3768339307556
 30
0.0
 11
31.38610086238492
 21
-104.3374516898085
 31
0.0
  0
SPLINE
  5
468E
330
384F
100
AcDbEntity
  8
Visible Edges(ISO)
100
AcDbSpline
210
0.0
220
0.0
230
1.0
 70
     8
 71
     2
 72
     7
 73
     4
 74
     0
 42
0.000000001
 43
0.0000000001
 40
0.0
 40
0.0
 40
0.0
 40
1.0
 40
2.0
 40
2.0
 40
2.0
 10
31.38610086238492
 20
-104.3374516898085
 30
0.0
 10
31.43474951296679
 20
-103.9042470393898
 30
0.0
 10
32.07181517534702
 20
-103.4687257865625
 30
0.0
 10
32.59073411488595
 20
-103.4687257865625
 30
0.0
  0
LINE
  5
468F
330
384F
100
AcDbEntity
  8
Visible Edges(ISO)
100
AcDbLine
 10
38.38687334134289
 20
-105.1042470870735
 30
0.0
 11
36.34594661931709
 21
-105.1042470870735
 31
0.0
  0
LINE
  5
4690
330
384F
100
AcDbEntity
  8
Visible Edges(ISO)
100
AcDbLine
 10
36.34594661931709
 20
-105.1042470870735
 30
0.0
 11
36.34594661931709
 21
-106.1258687492908
 31
0.0
  0
LINE
  5
4691
330
384F
100
AcDbEntity
  8
Visible Edges(ISO)
100
AcDbLine
 10
36.34594661931709
 20
-106.1258687492908
 30
0.0
 11
38.61158377498242
 21
-106.1258687492908
 31
0.0
  0
LINE
  5
4692
330
384F
100
AcDbEntity
  8
Visible Edges(ISO)
100
AcDbLine
 10
38.61158377498242
 20
-106.1258687492908
 30
0.0
 11
38.61158377498242
 21
-106.4803089178151
 31
0.0
  0
LINE
  5
4693
330
384F
100
AcDbEntity
  8
Visible Edges(ISO)
100
AcDbLine
 10
38.61158377498242
 20
-106.4803089178151
 30
0.0
 11
35.85714351109078
 21
-106.4803089178151
 31
0.0
  0
LINE
  5
4694
330
384F
100
AcDbEntity
  8
Visible Edges(ISO)
100
AcDbLine
 10
35.85714351109078
 20
-106.4803089178151
 30
0.0
 11
35.85714351109078
 21
-103.4803087986058
 31
0.0
  0
LINE
  5
4695
330
384F
100
AcDbEntity
  8
Visible Edges(ISO)
100
AcDbLine
 10
35.85714351109078
 20
-103.4803087986058
 30
0.0
 11
38.5258694858623
 21
-103.4803087986058
 31
0.0
  0
LINE
  5
4696
330
384F
100
AcDbEntity
  8
Visible Edges(ISO)
100
AcDbLine
 10
38.5258694858623
 20
-103.4803087986058
 30
0.0
 11
38.5258694858623
 21
-103.83474896713
 31
0.0
  0
LINE
  5
4697
330
384F
100
AcDbEntity
  8
Visible Edges(ISO)
100
AcDbLine
 10
38.5258694858623
 20
-103.83474896713
 30
0.0
 11
36.34594661931709
 21
-103.83474896713
 31
0.0
  0
LINE
  5
4698
330
384F
100
AcDbEntity
  8
Visible Edges(ISO)
100
AcDbLine
 10
36.34594661931709
 20
-103.83474896713
 30
0.0
 11
36.34594661931709
 21
-104.7498069185492
 31
0.0
  0
LINE
  5
4699
330
384F
100
AcDbEntity
  8
Visible Edges(ISO)
100
AcDbLine
 10
36.34594661931709
 20
-104.7498069185492
 30
0.0
 11
38.38687334134289
 21
-104.7498069185492
 31
0.0
  0
LINE
  5
469A
330
384F
100
AcDbEntity
  8
Visible Edges(ISO)
100
AcDbLine
 10
38.38687334134289
 20
-104.7498069185492
 30
0.0
 11
38.38687334134289
 21
-105.1042470870735
 31
0.0
  0
LINE
  5
469B
330
384F
100
AcDbEntity
  8
Visible Edges(ISO)
100
AcDbLine
 10
23.99845578118158
 20
-106.1258687492908
 30
0.0
 11
24.78378399771583
 21
-106.1258687492908
 31
0.0
  0
SPLINE
  5
469C
330
384F
100
AcDbEntity
  8
Visible Edges(ISO)
100
AcDbSpline
210
0.0
220
0.0
230
1.0
 70
     8
 71
     2
 72
     7
 73
     4
 74
     0
 42
0.000000001
 43
0.0000000001
 40
0.0
 40
0.0
 40
0.0
 40
1.0
 40
2.0
 40
2.0
 40
2.0
 10
24.78378399771583
 20
-106.1258687492908
 30
0.0
 10
25.26100409389897
 20
-106.1258687492908
 30
0.0
 10
25.75212380453394
 20
-105.9196911349204
 30
0.0
 10
25.88185353941873
 20
-105.6903474964635
 30
0.0
  0
SPLINE
  5
469D
330
384F
100
AcDbEntity
  8
Visible Edges(ISO)
100
AcDbSpline
210
0.0
220
0.0
230
1.0
 70
     8
 71
     2
 72
     6
 73
     3
 74
     0
 42
0.000000001
 43
0.0000000001
 40
0.0
 40
0.0
 40
0.0
 40
1.0
 40
1.0
 40
1.0
 10
25.88185353941873
 20
-105.6903474964635
 30
0.0
 10
26.0579153224765
 20
-105.3845559785209
 30
0.0
 10
26.0579153224765
 20
-104.9606177377369
 30
0.0
  0
LINE
  5
469E
330
384F
100
AcDbEntity
  8
Visible Edges(ISO)
100
AcDbLine
 10
23.99845578118158
 20
-103.83474896713
 30
0.0
 11
23.99845578118158
 21
-106.1258687492908
 31
0.0
  0
LINE
  5
469F
330
384F
100
AcDbEntity
  8
Visible Edges(ISO)
100
AcDbLine
 10
24.77220098567256
 20
-103.83474896713
 30
0.0
 11
23.99845578118158
 21
-103.83474896713
 31
0.0
  0
SPLINE
  5
46A0
330
384F
100
AcDbEntity
  8
Visible Edges(ISO)
100
AcDbSpline
210
0.0
220
0.0
230
1.0
 70
     8
 71
     2
 72
     6
 73
     3
 74
     0
 42
0.000000001
 43
0.0000000001
 40
0.0
 40
0.0
 40
0.0
 40
1.0
 40
1.0
 40
1.0
 10
25.39536703360096
 20
-103.8949806297552
 30
0.0
 10
25.19845582886529
 20
-103.83474896713
 30
0.0
 10
24.77220098567256
 20
-103.83474896713
 30
0.0
  0
SPLINE
  5
46A1
330
384F
100
AcDbEntity
  8
Visible Edges(ISO)
100
AcDbSpline
210
0.0
220
0.0
230
1.0
 70
     8
 71
     2
 72
     7
 73
     4
 74
     0
 42
0.000000001
 43
0.0000000001
 40
0.0
 40
0.0
 40
0.0
 40
1.0
 40
2.0
 40
2.0
 40
2.0
 10
26.0579153224765
 20
-104.9606177377369
 30
0.0
 10
26.0579153224765
 20
-104.5042470632317
 30
0.0
 10
25.68725893709161
 20
-103.9830115212841
 30
0.0
 10
25.39536703360096
 20
-103.8949806297552
 30
0.0
  0
INSERT
  5
46B8
330
384F
100
AcDbEntity
  8
0
100
AcDbBlockReference
 66
     1
  2
info
 10
-43.09999990154077
 20
-96.99999992282707
 30
0.0
  0
ATTRIB
  5
46B9
330
46B8
100
AcDbEntity
  8
0
100
AcDbText
 10
-33.63290695122127
 20
-94.10890468734772
 30
0.00000001
 40
5.0
  1
40
100
AcDbAttribute
280
     0
  2
BRD
 70
     1
280
     1
  0
ATTRIB
  5
46BA
330
46B8
100
AcDbEntity
  8
0
100
AcDbText
 10
-33.63290695122127
 20
-102.4422380206809
 30
0.00000001
 40
5.0
  1
160
100
AcDbAttribute
280
     0
  2
HJD
 70
     1
280
     1
  0
SEQEND
  5
46BB
330
46B8
100
AcDbEntity
  8
0
  0
INSERT
  5
46C8
330
384F
100
AcDbEntity
  8
0
100
AcDbBlockReference
 66
     1
  2
info
 10
3.100000098459091
 20
-96.99999992282707
 30
0.0
  0
ATTRIB
  5
46C9
330
46C8
100
AcDbEntity
  8
0
100
AcDbText
 10
12.56709304877859
 20
-94.10890468734772
 30
0.00000001
 40
5.0
  1
40
100
AcDbAttribute
280
     0
  2
BRD
 70
     1
280
     1
  0
ATTRIB
  5
46CA
330
46C8
100
AcDbEntity
  8
0
100
AcDbText
 10
12.56709304877859
 20
-102.4422380206809
 30
0.00000001
 40
5.0
  1
160
100
AcDbAttribute
280
     0
  2
HJD
 70
     1
280
     1
  0
SEQEND
  5
46CB
330
46C8
100
AcDbEntity
  8
0
  0
ENDBLK
  5
3851
330
384F
100
AcDbEntity
  8
0
100
AcDbBlockEnd
  0
BLOCK
  5
424F
330
424E
100
AcDbEntity
  8
0
100
AcDbBlockBegin
  2
*D9
 70
     1
 10
0.0
 20
0.0
 30
0.0
  3
*D9
  1

  0
LINE
  5
4251
330
424E
100
AcDbEntity
  8
DIM
440
 16777216
100
AcDbLine
 10
-50.99999999999963
 20
117.9999999999993
 30
0.0
 11
-101.3211128292063
 21
117.9999999999993
 31
0.0
  0
LINE
  5
4252
330
424E
100
AcDbEntity
  8
DIM
440
 16777216
100
AcDbLine
 10
-51.00000000000038
 20
-117.999999999999
 30
0.0
 11
-101.3211128292064
 21
-117.999999999999
 31
0.0
  0
LINE
  5
4253
330
424E
100
AcDbEntity
  8
DIM
440
 16777216
100
AcDbLine
 10
-100.3211128292063
 20
115.4999999999993
 30
0.0
 11
-100.3211128292064
 21
-115.499999999999
 31
0.0
  0
SOLID
  5
4254
330
424E
100
AcDbEntity
  8
DIM
440
 16777216
100
AcDbTrace
 10
-100.737779495873
 20
115.4999999999993
 30
0.0
 11
-99.90444616253968
 21
115.4999999999993
 31
0.0
 12
-100.3211128292063
 22
117.9999999999993
 32
0.0
 13
-100.3211128292063
 23
117.9999999999993
 33
0.0
  0
SOLID
  5
4255
330
424E
100
AcDbEntity
  8
DIM
440
 16777216
100
AcDbTrace
 10
-100.7377794958731
 20
-115.499999999999
 30
0.0
 11
-99.90444616253974
 21
-115.499999999999
 31
0.0
 12
-100.3211128292064
 22
-117.999999999999
 32
0.0
 13
-100.3211128292064
 23
-117.999999999999
 33
0.0
  0
MTEXT
  5
4256
330
424E
100
AcDbEntity
  8
DIM
 62
     2
440
 16777216
100
AcDbMText
 10
-103.7478045857753
 20
0.0000000000001345
 30
0.0
 40
3.5
 41
0.0
 46
0.0
 71
     5
 72
     1
  1
236 [9.291"]
 11
0.0000000000000001
 21
1.0
 31
0.0
 73
     1
 44
1.0
  0
POINT
  5
4257
330
424E
100
AcDbEntity
  8
Defpoints
 62
     0
440
 16777216
100
AcDbPoint
 10
-49.99999999999963
 20
117.9999999999993
 30
0.0
  0
POINT
  5
4258
330
424E
100
AcDbEntity
  8
Defpoints
 62
     0
440
 16777216
100
AcDbPoint
 10
-50.00000000000039
 20
-117.999999999999
 30
0.0
  0
POINT
  5
4259
330
424E
100
AcDbEntity
  8
Defpoints
 62
     0
440
 16777216
100
AcDbPoint
 10
-100.3211128292064
 20
-117.999999999999
 30
0.0
  0
ENDBLK
  5
4250
330
424E
100
AcDbEntity
  8
0
100
AcDbBlockEnd
  0
BLOCK
  5
46A7
330
46A6
100
AcDbEntity
  8
0
100
AcDbBlockBegin
  2
info
 70
     2
 10
0.0
 20
0.0
 30
0.0
  3
info
  1

  0
POINT
  5
46A8
330
46A6
100
AcDbEntity
  8
0
100
AcDbPoint
 10
0.0
 20
0.0
 30
0.0
  0
ATTDEF
  5
46A9
330
46A6
100
AcDbEntity
  8
0
100
AcDbText
 10
9.467092950319427
 20
2.891095235479383
 30
0.00000001
 40
5.0
  1

100
AcDbAttributeDefinition
280
     0
  3
bredd
  2
BRD
 70
     1
280
     1
  0
ATTDEF
  5
46AA
330
46A6
100
AcDbEntity
  8
0
100
AcDbText
 10
9.467092950319427
 20
-5.442238097853946
 30
0.00000001
 40
5.0
  1

100
AcDbAttributeDefinition
280
     0
  3
Höjd
  2
HJD
 70
     1
280
     1
  0
ENDBLK
  5
46AB
330
46A6
100
AcDbEntity
  8
0
100
AcDbBlockEnd
  0
ENDSEC
  0
SECTION
  2
ENTITIES
  0
INSERT
  5
3B7D
330
1A
100
AcDbEntity
  8
AM_0
100
AcDbBlockReference
  2
HD32EX
 10
112.153002293891
 20
153.7263659116839
 30
0.0
  0
VIEWPORT
  5
2CAA
102
{ACAD_XDICTIONARY
360
2CAB
102
}
330
2CA3
100
AcDbEntity
 67
     1
  8
0
348
A55
100
AcDbViewport
 10
128.5
 20
97.5
 30
0.0
 40
349.2069620253165
 41
222.18
 68
     1
 69
     1
 12
128.5
 22
97.5
 13
0.0
 23
0.0
 14
10.0
 24
10.0
 15
10.0
 25
10.0
 16
0.0
 26
0.0
 36
1.0
 17
0.0
 27
0.0
 37
0.0
 42
50.0
 43
0.0
 44
0.0
 45
222.18
 50
0.0
 51
0.0
 72
   100
 90
   819232
  1

281
     0
 71
     1
 74
     0
110
0.0
120
0.0
130
0.0
111
1.0
121
0.0
131
0.0
112
0.0
122
1.0
132
0.0
 79
     0
146
0.0
170
     0
 61
     5
348
A55
292
     1
282
     1
141
0.0
142
0.0
 63
   250
421
  3355443
1001
GENIUS_GENOBJ-N-SDF_13
1002
{
1000
OWNER
1000
GEN
1002
}
1001
GENIUS_GENODEF_13
1002
{
1000
HIER
1070
     0
1002
}
1002
{
1000
MANEDIT
1070
     0
1002
}
1002
{
1000
NOSEL
1070
     0
1002
}
1002
{
1000
BEHIND
1070
     0
1002
}
1002
{
1000
OTHER
1070
     0
1002
}
1002
{
1000
REACTOR
1002
}
1001
GENIUS_GENSCREG_15
1000
PF
1040
1.0
1000
DF
1040
1.0
1000
MIN
1011
-46.10348101265822
1021
-13.59
1031
0.0
1000
MAX
1011
303.1034810126582
1021
208.59
1031
0.0
1000
FLAGS
1070
     4
  0
ENDSEC
  0
SECTION
  2
OBJECTS
  0
DICTIONARY
  5
C
330
0
100
AcDbDictionary
281
     1
  3
ACAD_CIP_PREVIOUS_PRODUCT_INFO
350
CD7
  3
ACAD_COLOR
350
3CA
  3
ACAD_DETAILVIEWSTYLE
350
CCB
  3
ACAD_FIELDLIST
350
D6A
  3
ACAD_GROUP
350
D
  3
ACAD_LAYOUT
350
167
  3
ACAD_MATERIAL
350
3C9
  3
ACAD_MLEADERSTYLE
350
A72
  3
ACAD_MLINESTYLE
350
E
  3
ACAD_PLOTSETTINGS
350
168
  3
ACAD_PLOTSTYLENAME
350
165
  3
ACAD_SCALELIST
350
A60
  3
ACAD_SECTIONVIEWSTYLE
350
CC9
  3
ACAD_TABLESTYLE
350
650
  3
ACAD_VISUALSTYLE
350
A4F
  3
ACASAPPOBJECT
350
EE
  3
ACASGREF_MASTER
350
9B
  3
ACDB_RECOMPOSE_DATA
350
46CE
  3
ACDBVARIABLEDICTIONARY
350
5D
  3
ACMDICTIONARY
350
142
  3
AD_GREF_MODULE
350
AF
  3
AD_MAPI_MODULE
350
18E
  3
AEC_PROPERTY_SET_DEFS
350
34C7
  3
AMG
350
171
  3
AMGSNAPSETTINGS
350
1F2
  3
ASE_INDEX_DICTIONARY
350
849
  3
coolorange
350
13F2
  3
MAPISURF_MODULE
350
2E8
  0
DICTIONARY
  5
592
330
2
100
AcDbDictionary
280
     1
281
     1
  3
ACAD_LAYERFILTERS
360
C7C
  3
ACAD_LAYERSTATES
360
822
  3
ACLYDICTIONARY
360
C7B
  3
AMLAYER_GROUPCOLORS
360
593
  0
DICTIONARY
  5
AB7
330
F
100
AcDbDictionary
280
     1
281
     1
  3
ADSK_XREC_LAYER_RECONCILED
360
3EC7
  0
DICTIONARY
  5
AB9
330
5CF
100
AcDbDictionary
280
     1
281
     1
  3
ADSK_XREC_LAYER_RECONCILED
360
3EC8
  0
DICTIONARY
  5
3EC9
330
318F
100
AcDbDictionary
280
     1
281
     1
  3
ADSK_XREC_LAYER_RECONCILED
360
3ECA
  0
DICTIONARY
  5
3ECB
330
3191
100
AcDbDictionary
280
     1
281
     1
  3
ADSK_XREC_LAYER_RECONCILED
360
3ECC
  0
DICTIONARY
  5
12A
330
1A
100
AcDbDictionary
280
     1
281
     1
  3
ACAD_INDEX
360
30C4
  0
DICTIONARY
  5
46A2
330
384F
100
AcDbDictionary
280
     1
281
     1
  0
DICTIONARY
  5
4614
330
4613
100
AcDbDictionary
280
     1
281
     1
  3
ACAD_DIMASSOC
360
4615
  0
DICTIONARY
  5
4617
330
4616
100
AcDbDictionary
280
     1
281
     1
  3
ACAD_DIMASSOC
360
4618
  0
DICTIONARY
  5
461A
330
4619
100
AcDbDictionary
280
     1
281
     1
  3
ACAD_DIMASSOC
360
461B
  0
DICTIONARY
  5
461D
330
461C
100
AcDbDictionary
280
     1
281
     1
  3
ACAD_DIMASSOC
360
461E
  0
DICTIONARY
  5
4620
330
461F
100
AcDbDictionary
280
     1
281
     1
  3
ACAD_DIMASSOC
360
4621
  0
DICTIONARY
  5
4623
330
4622
100
AcDbDictionary
280
     1
281
     1
  3
ACAD_DIMASSOC
360
4624
  0
DICTIONARY
  5
2CAB
330
2CAA
100
AcDbDictionary
280
     1
281
     1
  3
ASDK_XREC_ANNOTATION_SCALE_INFO
360
2CAC
  0
XRECORD
  5
CD7
102
{ACAD_REACTORS
330
C
102
}
330
C
100
AcDbXrecord
280
     1
300
AMECH_PP
300
2013
300
85963PDSU_2013_0F
  0
DICTIONARY
  5
3CA
102
{ACAD_REACTORS
330
C
102
}
330
C
100
AcDbDictionary
281
     1
  0
DICTIONARY
  5
CCB
102
{ACAD_REACTORS
330
C
102
}
330
C
100
AcDbDictionary
281
     1
  3
ISO 128-34_2001
350
10B9
  3
Metric50
350
CCC
  0
FIELDLIST
  5
D6A
102
{ACAD_REACTORS
330
C
102
}
330
C
100
AcDbIdSet
 90
        3
330
10BD
330
10BE
330
10BF
100
AcDbFieldList
  0
DICTIONARY
  5
D
102
{ACAD_REACTORS
330
C
102
}
330
C
100
AcDbDictionary
281
     1
  0
DICTIONARY
  5
167
102
{ACAD_REACTORS
330
C
102
}
330
C
100
AcDbDictionary
281
     1
  3
Layout1
350
2CA4
  3
Model
350
169
  0
DICTIONARY
  5
3C9
102
{ACAD_REACTORS
330
C
102
}
330
C
100
AcDbDictionary
281
     1
  3
ByBlock
350
A3F
  3
ByLayer
350
A37
  3
Global
350
A47
  0
DICTIONARY
  5
A72
102
{ACAD_REACTORS
330
C
102
}
330
C
100
AcDbDictionary
281
     1
  3
Standard
350
A73
  0
DICTIONARY
  5
E
102
{ACAD_REACTORS
330
C
102
}
330
C
100
AcDbDictionary
281
     1
  3
STANDARD
350
13
  0
DICTIONARY
  5
168
102
{ACAD_REACTORS
330
C
102
}
330
C
100
AcDbDictionary
281
     1
  3
Setup1
350
2C89
  0
ACDBDICTIONARYWDFLT
  5
165
102
{ACAD_REACTORS
330
C
102
}
330
C
100
AcDbDictionary
281
     1
  3
Normal
350
166
100
AcDbDictionaryWithDefault
340
166
  0
DICTIONARY
  5
A60
102
{ACAD_REACTORS
330
C
102
}
330
C
100
AcDbDictionary
281
     1
  3
A0
350
A61
  3
A1
350
A62
  3
A2
350
A63
  3
A3
350
A64
  3
A4
350
A65
  3
A5
350
A66
  3
A6
350
A67
  3
A7
350
A68
  3
A8
350
A69
  3
A9
350
A6A
  3
B0
350
A6B
  3
B1
350
A6C
  3
B2
350
A6D
  3
B3
350
A6E
  3
B4
350
A6F
  3
B5
350
A70
  3
B6
350
A71
  0
DICTIONARY
  5
CC9
102
{ACAD_REACTORS
330
C
102
}
330
C
100
AcDbDictionary
281
     1
  3
ISO 128_1982
350
10BA
  3
Metric50
350
CCA
  0
DICTIONARY
  5
650
102
{ACAD_REACTORS
330
C
102
}
330
C
100
AcDbDictionary
281
     1
  3
Standard
350
651
  0
DICTIONARY
  5
A4F
102
{ACAD_REACTORS
330
C
102
}
330
C
100
AcDbDictionary
281
     1
  3
2dWireframe
350
A55
  3
3D Hidden
350
A57
  3
3dWireframe
350
A56
  3
Basic
350
A54
  3
Brighten
350
A5B
  3
ColorChange
350
A5F
  3
Conceptual
350
A58
  3
Dim
350
A5A
  3
EdgeColorOff
350
CC8
  3
Facepattern
350
A5E
  3
Flat
350
A50
  3
FlatWithEdges
350
A51
  3
Gouraud
350
A52
  3
GouraudWithEdges
350
A53
  3
Hidden
350
CC0
  3
JitterOff
350
CC6
  3
Linepattern
350
A5D
  3
OverhangOff
350
CC7
  3
Realistic
350
A59
  3
Shaded
350
CC5
  3
Shaded with edges
350
CC4
  3
Shades of Gray
350
CC1
  3
Sketchy
350
CC2
  3
Thicken
350
A5C
  3
Wireframe
350
CBF
  3
X-Ray
350
CC3
  0
ACAD_PROXY_OBJECT
  5
EE
102
{ACAD_REACTORS
330
C
102
}
330
C
100
AcDbProxyObject
 90
      499
 91
      544
 95
  3276827
 70
     0
162
                 0
161
                10
310
404C
 94
        0
  0
ACAD_PROXY_OBJECT
  5
9B
102
{ACAD_REACTORS
330
C
102
}
330
C
100
AcDbProxyObject
 90
      499
 91
      514
 95
  3276827
 70
     0
162
                 0
161
                34
310
010000404C
 94
        0
  0
XRECORD
  5
46CE
102
{ACAD_REACTORS
330
C
102
}
330
C
100
AcDbXrecord
280
     1
 90
        1
330
651
  0
DICTIONARY
  5
5D
102
{ACAD_REACTORS
330
C
102
}
330
C
100
AcDbDictionary
281
     1
  3
CANNOSCALE
350
AF4
  3
CMLEADERSTYLE
350
AF2
  3
CTABLESTYLE
350
66F
  3
CVIEWDETAILSTYLE
350
FFA
  3
CVIEWSECTIONSTYLE
350
FFB
  3
DIMADEC
350
5E
  3
DIMASSOC
350
3C7
  3
INDEXCTL
350
128
  3
LAYEREVAL
350
AF6
  3
LAYERNOTIFY
350
AF7
  3
LIGHTINGUNITS
350
AF5
  3
MSLTSCALE
350
AF3
  0
DICTIONARY
  5
142
102
{ACAD_REACTORS
330
C
102
}
330
C
100
AcDbDictionary
281
     1
  3
ACMSTDDICTIONARY
350
143
  3
AMDTSECTSYM_ARROWCOLOR
350
47D
  0
ACAD_PROXY_OBJECT
  5
AF
102
{ACAD_REACTORS
330
C
102
}
330
C
100
AcDbProxyObject
 90
      499
 91
      526
 95
  3276827
 70
     0
162
                 0
161
               114
310
00000043800000000000000000000C
 94
        0
  0
ACAD_PROXY_OBJECT
  5
18E
102
{ACAD_REACTORS
330
C
102
}
330
C
100
AcDbProxyObject
 90
      499
 91
      570
 95
  3276827
 70
     0
162
                 0
161
                34
310
05000044CC
 94
        0
  0
DICTIONARY
  5
34C7
102
{ACAD_REACTORS
330
C
102
}
330
C
100
AcDbDictionary
281
     1
  0
DICTIONARY
  5
171
102
{ACAD_REACTORS
330
C
102
}
330
C
100
AcDbDictionary
281
     1
  0
DICTIONARY
  5
1F2
102
{ACAD_REACTORS
330
C
102
}
330
C
100
AcDbDictionary
281
     1
  0
DICTIONARY
  5
849
102
{ACAD_REACTORS
330
C
102
}
330
C
100
AcDbDictionary
281
     1
  3
ASEBlockHierarchyIndexRecord
350
84B
1001
DCO15
1040
1524370329.156
  0
DICTIONARY
  5
13F2
102
{ACAD_REACTORS
330
C
102
}
330
C
100
AcDbDictionary
281
     1
  3
myviewproperty
350
13F3
  0
ACAD_PROXY_OBJECT
  5
2E8
102
{ACAD_REACTORS
330
C
102
}
330
C
100
AcDbProxyObject
 90
      499
 91
      610
 95
  3276827
 70
     0
162
                 0
161
                 8
310
0400
 94
        0
  0
DICTIONARY
  5
C7C
102
{ACAD_REACTORS
330
592
102
}
330
592
100
AcDbDictionary
281
     1
  0
DICTIONARY
  5
822
102
{ACAD_REACTORS
330
592
102
}
330
592
100
AcDbDictionary
281
     1
  0
DICTIONARY
  5
C7B
102
{ACAD_REACTORS
330
592
102
}
330
592
100
AcDbDictionary
281
     1
1001
ACAD
1000
<All
  0
DICTIONARY
  5
593
102
{ACAD_REACTORS
330
592
102
}
330
592
100
AcDbDictionary
280
     1
281
     1
  0
XRECORD
  5
3EC7
102
{ACAD_REACTORS
330
AB7
102
}
330
AB7
100
AcDbXrecord
280
     1
290
     1
  0
XRECORD
  5
3EC8
102
{ACAD_REACTORS
330
AB9
102
}
330
AB9
100
AcDbXrecord
280
     1
290
     1
  0
XRECORD
  5
3ECA
102
{ACAD_REACTORS
330
3EC9
102
}
330
3EC9
100
AcDbXrecord
280
     1
290
     1
  0
XRECORD
  5
3ECC
102
{ACAD_REACTORS
330
3ECB
102
}
330
3ECB
100
AcDbXrecord
280
     1
290
     1
  0
DICTIONARY
  5
30C4
102
{ACAD_REACTORS
330
12A
102
}
330
12A
100
AcDbDictionary
281
     1
  3
*A1
350
30C5
  0
DIMASSOC
  5
4615
102
{ACAD_REACTORS
330
4614
102
}
330
4614
100
AcDbDimAssoc
330
4613
 90
        3
 70
     0
 71
     0
  1
AcDbOsnapPointRef
 72
    13
331
45FA
 73
     0
 91
        0
 40
0.0
 10
0.0
 20
0.0
 30
2.000000000000000E+50
 75
     0
  1
AcDbOsnapPointRef
 72
     8
331
45FC
 73
     0
 91
        0
 40
0.9999999999999875
 10
0.0
 20
0.0
 30
0.0
 75
     1
  1
AcDbOsnapPointRef
 72
    13
331
45FA
 73
     0
 91
        0
 40
0.0
 10
0.0
 20
0.0
 30
2.000000000000000E+50
 75
     0
  0
DIMASSOC
  5
4618
102
{ACAD_REACTORS
330
4617
102
}
330
4617
100
AcDbDimAssoc
330
4616
 90
        3
 70
     0
 71
     0
  1
AcDbOsnapPointRef
 72
    11
331
435C
 73
     0
 91
        0
 40
1.570796326794894
 10
0.0
 20
0.0
 30
0.0
332
4363
 74
     0
 92
        0
 75
     0
  1
AcDbOsnapPointRef
 72
     8
331
4361
 73
     0
 91
        0
 40
1.0
 10
0.0
 20
0.0
 30
0.0
 75
     1
  1
AcDbOsnapPointRef
 72
    11
331
435C
 73
     0
 91
        0
 40
1.570796326794894
 10
0.0
 20
0.0
 30
0.0
332
4363
 74
     0
 92
        0
 75
     0
  0
DIMASSOC
  5
461B
102
{ACAD_REACTORS
330
461A
102
}
330
461A
100
AcDbDimAssoc
330
4619
 90
        3
 70
     0
 71
     0
  1
AcDbOsnapPointRef
 72
    13
331
45F8
 73
     0
 91
        0
 40
0.0
 10
0.0
 20
0.0
 30
2.000000000000000E+50
 75
     0
  1
AcDbOsnapPointRef
 72
     8
331
45F5
 73
     0
 91
        0
 40
6.283185307179588
 10
0.0
 20
0.0
 30
0.0
 75
     1
  1
AcDbOsnapPointRef
 72
    13
331
45F8
 73
     0
 91
        0
 40
0.0
 10
0.0
 20
0.0
 30
2.000000000000000E+50
 75
     0
  0
DIMASSOC
  5
461E
102
{ACAD_REACTORS
330
461D
102
}
330
461D
100
AcDbDimAssoc
330
461C
 90
        3
 70
     0
 71
     0
  1
AcDbOsnapPointRef
 72
    13
331
435D
 73
     0
 91
        0
 40
0.0
 10
0.0
 20
0.0
 30
2.000000000000000E+50
 75
     0
  1
AcDbOsnapPointRef
 72
     1
331
4362
 73
     0
 91
        0
 40
0.0
 10
0.0
 20
0.0
 30
2.000000000000000E+50
 75
     0
  0
DIMASSOC
  5
4621
102
{ACAD_REACTORS
330
4620
102
}
330
4620
100
AcDbDimAssoc
330
461F
 90
        3
 70
     0
 71
     0
  1
AcDbOsnapPointRef
 72
    13
331
460C
 73
     0
 91
        0
 40
0.0
 10
0.0
 20
0.0
 30
2.000000000000000E+50
 75
     0
  1
AcDbOsnapPointRef
 72
     1
331
460C
 73
     0
 91
        0
 40
0.0
 10
0.0
 20
0.0
 30
2.000000000000000E+50
 75
     0
  0
DIMASSOC
  5
4624
102
{ACAD_REACTORS
330
4623
102
}
330
4623
100
AcDbDimAssoc
330
4622
 90
        3
 70
     0
 71
     0
  1
AcDbOsnapPointRef
 72
    13
331
460D
 73
     0
 91
        0
 40
0.0
 10
0.0
 20
0.0
 30
2.000000000000000E+50
 75
     0
  1
AcDbOsnapPointRef
 72
    13
331
460C
 73
     0
 91
        0
 40
0.0
 10
0.0
 20
0.0
 30
2.000000000000000E+50
 75
     0
  0
XRECORD
  5
2CAC
102
{ACAD_REACTORS
330
2CAB
102
}
330
2CAB
100
AcDbXrecord
280
     1
 90
        1
340
A61
  0
ACDBDETAILVIEWSTYLE
  5
10B9
102
{ACAD_XDICTIONARY
360
13FE
102
}
102
{ACAD_REACTORS
330
CCB
102
}
330
CCB
100
AcDbModelDocViewStyle
 70
     0
  3

290
     0
100
AcDbDetailViewStyle
 70
     0
 71
     0
 90
        3
 71
     1
340
159
 62
     7
 40
5.0
340
D74
 62
   256
 40
5.0
300

 40
0.0
280
     0
 71
     2
340
16
 90
       25
 62
   256
 71
     3
340
159
 62
     7
 40
5.0
 90
        1
 40
15.0
 90
        1
300
%<\AcVar ViewDetailId>% (%<\AcVar ViewScale \f "%sn">%)
 71
     4
340
16
 90
       25
 62
   256
340
16
 90
       25
 62
   256
280
     1
  0
ACDBDETAILVIEWSTYLE
  5
CCC
102
{ACAD_XDICTIONARY
360
13FC
102
}
102
{ACAD_REACTORS
330
CCB
102
}
330
CCB
100
AcDbModelDocViewStyle
 70
     0
  3
Metric50
290
     0
100
AcDbDetailViewStyle
 70
     0
 71
     0
 90
        3
 71
     1
340
10
 62
   256
 40
5.0
340
0
 62
   256
 40
5.0
300

 40
0.0
280
     1
 71
     2
340
16
 90
       25
 62
   256
 71
     3
340
10
 62
   256
 40
5.0
 90
        0
 40
15.0
 90
        1
300
%<\AcVar ViewDetailId>% (%<\AcVar ViewScale \f "%sn">%)
 71
     4
340
16
 90
       25
 62
   256
340
16
 90
       25
 62
   256
280
     0
  0
LAYOUT
  5
2CA4
102
{ACAD_REACTORS
330
167
102
}
330
167
100
AcDbPlotSettings
  1

  2
none_device
  4
ISO_A4_(210.00_x_297.00_MM)
  6

 40
7.5
 41
20.0
 42
7.5
 43
20.0
 44
210.0
 45
297.0
 46
0.0
 47
0.0
 48
0.0
 49
0.0
140
0.0
141
0.0
142
1.0
143
2.0
 70
   688
 72
     1
 73
     1
 74
     5
  7
@Layout.ctb
 75
    17
147
0.5
 76
     0
 77
     2
 78
   300
148
0.0
149
0.0
100
AcDbLayout
  1
Layout1
 70
     1
 71
     1
 10
0.0
 20
0.0
 11
12.0
 21
9.0
 12
0.0
 22
0.0
 32
0.0
 14
1.000000000000000E+20
 24
1.000000000000000E+20
 34
1.000000000000000E+20
 15
-1.000000000000000E+20
 25
-1.000000000000000E+20
 35
-1.000000000000000E+20
146
0.0
 13
0.0
 23
0.0
 33
0.0
 16
1.0
 26
0.0
 36
0.0
 17
0.0
 27
1.0
 37
0.0
 76
     0
330
2CA3
331
2CAA
1001
ACAD_PSEXT
1000
None
1000
None
1000
Not applicable
1000
The layout will not be plotted unless a new plotter configuration name is selected.
1070
     0
  0
LAYOUT
  5
169
102
{ACAD_XDICTIONARY
360
1474
102
}
102
{ACAD_REACTORS
330
167
102
}
330
167
100
AcDbPlotSettings
  1

  2
none_device
  4
Letter_(8.50_x_11.00_Inches)
  6

 40
6.349999904632567
 41
6.349999904632567
 42
6.350006103515625
 43
6.350006103515625
 44
215.8999938964844
 45
279.3999938964844
 46
38.1308720290886
 47
0.0
 48
0.0
 49
0.0
140
0.0
141
0.0
142
1.0
143
24.24127445441686
 70
 11956
 72
     0
 73
     1
 74
     0
  7
@Layout.ctb
 75
     0
147
0.0412519565289521
 76
     0
 77
     2
 78
   300
148
8019.824937415057
149
-189.2331007602539
100
AcDbLayout
  1
Model
 70
     1
 71
     0
 10
0.0
 20
0.0
 11
12.0
 21
9.0
 12
0.0
 22
0.0
 32
0.0
 14
0.0
 24
0.0
 34
0.0
 15
0.0
 25
0.0
 35
0.0
146
0.0
 13
0.0
 23
0.0
 33
0.0
 16
1.0
 26
0.0
 36
0.0
 17
0.0
 27
1.0
 37
0.0
 76
     0
330
1A
331
A35
1001
ACAD_PSEXT
1000
None
1000
None
1000
Not applicable
1000
The layout will not be plotted unless a new plotter configuration name is selected.
1070
     0
  0
MATERIAL
  5
A3F
102
{ACAD_XDICTIONARY
360
A40
102
}
102
{ACAD_REACTORS
330
3C9
102
}
330
3C9
100
AcDbMaterial
  1
ByBlock
 72
     0
 43
0.0008202099737533
 43
0.0
 43
0.0
 43
0.0
 43
0.0
 43
0.0008202099737533
 43
0.0
 43
0.0
 43
0.0
 43
0.0
 43
1.0
 43
0.0
 43
0.0
 43
0.0
 43
0.0
 43
1.0
 77
     0
 47
0.0008202099737533
 47
0.0
 47
0.0
 47
0.0
 47
0.0
 47
0.0008202099737533
 47
0.0
 47
0.0
 47
0.0
 47
0.0
 47
1.0
 47
0.0
 47
0.0
 47
0.0
 47
0.0
 47
1.0
171
     0
 49
0.0008202099737533
 49
0.0
 49
0.0
 49
0.0
 49
0.0
 49
0.0008202099737533
 49
0.0
 49
0.0
 49
0.0
 49
0.0
 49
1.0
 49
0.0
 49
0.0
 49
0.0
 49
0.0
 49
1.0
175
     0
142
0.0008202099737533
142
0.0
142
0.0
142
0.0
142
0.0
142
0.0008202099737533
142
0.0
142
0.0
142
0.0
142
0.0
142
1.0
142
0.0
142
0.0
142
0.0
142
0.0
142
1.0
179
     0
144
0.0008202099737533
144
0.0
144
0.0
144
0.0
144
0.0
144
0.0008202099737533
144
0.0
144
0.0
144
0.0
144
0.0
144
1.0
144
0.0
144
0.0
144
0.0
144
0.0
144
1.0
147
0.0008202099737533
147
0.0
147
0.0
147
0.0
147
0.0
147
0.0008202099737533
147
0.0
147
0.0
147
0.0
147
0.0
147
1.0
147
0.0
147
0.0
147
0.0
147
0.0
147
1.0
  0
MATERIAL
  5
A37
102
{ACAD_XDICTIONARY
360
A38
102
}
102
{ACAD_REACTORS
330
3C9
102
}
330
3C9
100
AcDbMaterial
  1
ByLayer
 72
     0
 43
0.0008202099737533
 43
0.0
 43
0.0
 43
0.0
 43
0.0
 43
0.0008202099737533
 43
0.0
 43
0.0
 43
0.0
 43
0.0
 43
1.0
 43
0.0
 43
0.0
 43
0.0
 43
0.0
 43
1.0
 77
     0
 47
0.0008202099737533
 47
0.0
 47
0.0
 47
0.0
 47
0.0
 47
0.0008202099737533
 47
0.0
 47
0.0
 47
0.0
 47
0.0
 47
1.0
 47
0.0
 47
0.0
 47
0.0
 47
0.0
 47
1.0
171
     0
 49
0.0008202099737533
 49
0.0
 49
0.0
 49
0.0
 49
0.0
 49
0.0008202099737533
 49
0.0
 49
0.0
 49
0.0
 49
0.0
 49
1.0
 49
0.0
 49
0.0
 49
0.0
 49
0.0
 49
1.0
175
     0
142
0.0008202099737533
142
0.0
142
0.0
142
0.0
142
0.0
142
0.0008202099737533
142
0.0
142
0.0
142
0.0
142
0.0
142
1.0
142
0.0
142
0.0
142
0.0
142
0.0
142
1.0
179
     0
144
0.0008202099737533
144
0.0
144
0.0
144
0.0
144
0.0
144
0.0008202099737533
144
0.0
144
0.0
144
0.0
144
0.0
144
1.0
144
0.0
144
0.0
144
0.0
144
0.0
144
1.0
147
0.0008202099737533
147
0.0
147
0.0
147
0.0
147
0.0
147
0.0008202099737533
147
0.0
147
0.0
147
0.0
147
0.0
147
1.0
147
0.0
147
0.0
147
0.0
147
0.0
147
1.0
  0
MATERIAL
  5
A47
102
{ACAD_XDICTIONARY
360
A48
102
}
102
{ACAD_REACTORS
330
3C9
102
}
330
3C9
100
AcDbMaterial
  1
Global
 72
     0
 43
0.0008202099737533
 43
0.0
 43
0.0
 43
0.0
 43
0.0
 43
0.0008202099737533
 43
0.0
 43
0.0
 43
0.0
 43
0.0
 43
1.0
 43
0.0
 43
0.0
 43
0.0
 43
0.0
 43
1.0
 77
     0
 47
0.0008202099737533
 47
0.0
 47
0.0
 47
0.0
 47
0.0
 47
0.0008202099737533
 47
0.0
 47
0.0
 47
0.0
 47
0.0
 47
1.0
 47
0.0
 47
0.0
 47
0.0
 47
0.0
 47
1.0
171
     0
 49
0.0008202099737533
 49
0.0
 49
0.0
 49
0.0
 49
0.0
 49
0.0008202099737533
 49
0.0
 49
0.0
 49
0.0
 49
0.0
 49
1.0
 49
0.0
 49
0.0
 49
0.0
 49
0.0
 49
1.0
175
     0
142
0.0008202099737533
142
0.0
142
0.0
142
0.0
142
0.0
142
0.0008202099737533
142
0.0
142
0.0
142
0.0
142
0.0
142
1.0
142
0.0
142
0.0
142
0.0
142
0.0
142
1.0
179
     0
144
0.0008202099737533
144
0.0
144
0.0
144
0.0
144
0.0
144
0.0008202099737533
144
0.0
144
0.0
144
0.0
144
0.0
144
1.0
144
0.0
144
0.0
144
0.0
144
0.0
144
1.0
147
0.0008202099737533
147
0.0
147
0.0
147
0.0
147
0.0
147
0.0008202099737533
147
0.0
147
0.0
147
0.0
147
0.0
147
1.0
147
0.0
147
0.0
147
0.0
147
0.0
147
1.0
  0
MLEADERSTYLE
  5
A73
102
{ACAD_XDICTIONARY
360
1497
102
}
102
{ACAD_REACTORS
330
A72
102
}
330
A72
100
AcDbMLeaderStyle
179
     2
170
     2
171
     1
172
     0
 90
        2
 40
0.0
 41
0.0
173
     1
 91
-1056964608
340
14
 92
       -2
290
     1
 42
2.0
291
     1
 43
0.36
  3
Standard
 44
4.0
300

342
10
174
     1
178
     6
175
     1
176
     0
 93
-1056964608
 45
4.0
292
     0
297
     0
 46
4.0
 94
-1056964608
 47
1.0
 49
1.0
140
1.0
293
     1
141
0.0
294
     1
177
     0
142
1.0
295
     0
296
     0
143
0.125
271
     0
272
     9
273
     9
298
     1
  0
MLINESTYLE
  5
13
102
{ACAD_REACTORS
330
E
102
}
330
E
100
AcDbMlineStyle
  2
STANDARD
 70
     0
  3

 62
     0
 51
90.0
 52
90.0
 71
     2
 49
0.5
 62
   256
  6
BYLAYER
 49
-0.5
 62
   256
  6
BYLAYER
  0
PLOTSETTINGS
  5
2C89
102
{ACAD_REACTORS
330
168
102
}
330
168
100
AcDbPlotSettings
  1
Setup1
  2
none_device
  4
ISO_A4_(210.00_x_297.00_MM)
  6

 40
7.5
 41
20.0
 42
7.5
 43
20.0
 44
210.0
 45
297.0
 46
0.0
 47
0.0
 48
0.0
 49
0.0
140
0.0
141
0.0
142
1.0
143
2.0
 70
   688
 72
     1
 73
     1
 74
     5
  7
@Layout.ctb
 75
    17
147
0.5
 76
     0
 77
     2
 78
   300
148
0.0
149
0.0
1001
ACAD_PSEXT
1000
None
1000
None
1000
Not applicable
1000
The layout will not be plotted unless a new plotter configuration name is selected.
1070
     0
  0
ACDBPLACEHOLDER
  5
166
102
{ACAD_REACTORS
330
165
102
}
330
165
  0
SCALE
  5
A61
102
{ACAD_REACTORS
330
A60
102
}
330
A60
100
AcDbScale
 70
     0
300
1:1
140
1.0
141
1.0
290
     1
  0
SCALE
  5
A62
102
{ACAD_REACTORS
330
A60
102
}
330
A60
100
AcDbScale
 70
     0
300
1:2
140
1.0
141
2.0
290
     0
  0
SCALE
  5
A63
102
{ACAD_REACTORS
330
A60
102
}
330
A60
100
AcDbScale
 70
     0
300
1:4
140
1.0
141
4.0
290
     0
  0
SCALE
  5
A64
102
{ACAD_REACTORS
330
A60
102
}
330
A60
100
AcDbScale
 70
     0
300
1:5
140
1.0
141
5.0
290
     0
  0
SCALE
  5
A65
102
{ACAD_REACTORS
330
A60
102
}
330
A60
100
AcDbScale
 70
     0
300
1:8
140
1.0
141
8.0
290
     0
  0
SCALE
  5
A66
102
{ACAD_REACTORS
330
A60
102
}
330
A60
100
AcDbScale
 70
     0
300
1:10
140
1.0
141
10.0
290
     0
  0
SCALE
  5
A67
102
{ACAD_REACTORS
330
A60
102
}
330
A60
100
AcDbScale
 70
     0
300
1:16
140
1.0
141
16.0
290
     0
  0
SCALE
  5
A68
102
{ACAD_REACTORS
330
A60
102
}
330
A60
100
AcDbScale
 70
     0
300
1:20
140
1.0
141
20.0
290
     0
  0
SCALE
  5
A69
102
{ACAD_REACTORS
330
A60
102
}
330
A60
100
AcDbScale
 70
     0
300
1:30
140
1.0
141
30.0
290
     0
  0
SCALE
  5
A6A
102
{ACAD_REACTORS
330
A60
102
}
330
A60
100
AcDbScale
 70
     0
300
1:40
140
1.0
141
40.0
290
     0
  0
SCALE
  5
A6B
102
{ACAD_REACTORS
330
A60
102
}
330
A60
100
AcDbScale
 70
     0
300
1:50
140
1.0
141
50.0
290
     0
  0
SCALE
  5
A6C
102
{ACAD_REACTORS
330
A60
102
}
330
A60
100
AcDbScale
 70
     0
300
1:100
140
1.0
141
100.0
290
     0
  0
SCALE
  5
A6D
102
{ACAD_REACTORS
330
A60
102
}
330
A60
100
AcDbScale
 70
     0
300
2:1
140
2.0
141
1.0
290
     0
  0
SCALE
  5
A6E
102
{ACAD_REACTORS
330
A60
102
}
330
A60
100
AcDbScale
 70
     0
300
4:1
140
4.0
141
1.0
290
     0
  0
SCALE
  5
A6F
102
{ACAD_REACTORS
330
A60
102
}
330
A60
100
AcDbScale
 70
     0
300
8:1
140
8.0
141
1.0
290
     0
  0
SCALE
  5
A70
102
{ACAD_REACTORS
330
A60
102
}
330
A60
100
AcDbScale
 70
     0
300
10:1
140
10.0
141
1.0
290
     0
  0
SCALE
  5
A71
102
{ACAD_REACTORS
330
A60
102
}
330
A60
100
AcDbScale
 70
     0
300
100:1
140
100.0
141
1.0
290
     0
  0
ACDBSECTIONVIEWSTYLE
  5
10BA
102
{ACAD_XDICTIONARY
360
10BB
102
}
102
{ACAD_REACTORS
330
CC9
102
}
330
CC9
100
AcDbModelDocViewStyle
 70
     0
  3

290
     0
100
AcDbSectionViewStyle
 70
     0
 71
     0
 90
      110
 71
     1
340
159
 62
     7
 40
5.0
340
D78
340
D78
 62
     0
 40
7.0
300
I,O,Q,S,X,Z
 40
10.0
 90
        4
 40
2.5
 90
        0
 71
     2
340
176
 90
       -1
 62
     1
340
176
 90
       -1
 62
     4
 40
10.0
 40
5.0
 40
10.0
 71
     3
340
159
 62
     7
 40
5.0
 90
        1
 40
5.25
 90
        1
300
%<\AcVar ViewSectionStartId>%-%<\AcVar ViewSectionEndId>%
 71
     4
 62
   256
 62
   257
300
ANSI31
 40
1.0
 90
        0
290
     0
290
     0
 90
        6
 40
0.0
 40
1.570796326794896
 40
0.2617993877991494
 40
1.308996938995747
 40
-0.2617993877991494
 40
1.832595714594044
  0
ACDBSECTIONVIEWSTYLE
  5
CCA
102
{ACAD_XDICTIONARY
360
13FA
102
}
102
{ACAD_REACTORS
330
CC9
102
}
330
CC9
100
AcDbModelDocViewStyle
 70
     0
  3
Metric50
290
     0
100
AcDbSectionViewStyle
 70
     0
 71
     0
 90
      102
 71
     1
340
10
 62
   256
 40
5.0
340
0
340
0
 62
   256
 40
5.0
300
I, O, Q, S, X, Z
 40
10.0
 90
        0
 40
2.5
 90
        0
 71
     2
340
16
 90
       25
 62
   256
340
16
 90
       50
 62
   256
 40
5.0
 40
2.5
 40
5.0
 71
     3
340
10
 62
   256
 40
5.0
 90
        0
 40
15.0
 90
        1
300
%<\AcVar ViewSectionStartId>%-%<\AcVar ViewSectionEndId>% (%<\AcVar ViewScale \f "%sn">%)
 71
     4
 62
   256
 62
   257
300
ANSI31
 40
1.0
 90
        0
290
     0
290
     0
 90
        6
 40
0.0
 40
1.570796326794896
 40
0.2617993877991494
 40
1.308996938995747
 40
-0.2617993877991494
 40
1.832595714594044
  0
TABLESTYLE
  5
651
102
{ACAD_XDICTIONARY
360
AED
102
}
102
{ACAD_REACTORS
330
650
102
}
330
650
100
AcDbTableStyle
280
     0
  3
Standard
 70
     0
 71
     0
 40
1.5
 41
1.5
280
     0
281
     0
  7
STANDARD
140
4.5
170
     2
 62
     0
 63
     7
283
     0
 90
        4
 91
        0
  1

274
    -2
284
     1
 64
     0
275
    -2
285
     1
 65
     0
276
    -2
286
     1
 66
     0
277
    -2
287
     1
 67
     0
278
    -2
288
     1
 68
     0
279
    -2
289
     1
 69
     0
  7
STANDARD
140
6.0
170
     5
 62
     0
 63
     7
283
     0
 90
        4
 91
        0
  1

274
    -2
284
     1
 64
     0
275
    -2
285
     1
 65
     0
276
    -2
286
     1
 66
     0
277
    -2
287
     1
 67
     0
278
    -2
288
     1
 68
     0
279
    -2
289
     1
 69
     0
  7
STANDARD
140
4.5
170
     5
 62
     0
 63
     7
283
     0
 90
        4
 91
        0
  1

274
    -2
284
     1
 64
     0
275
    -2
285
     1
 65
     0
276
    -2
286
     1
 66
     0
277
    -2
287
     1
 67
     0
278
    -2
288
     1
 68
     0
279
    -2
289
     1
 69
     0
  0
VISUALSTYLE
  5
A55
102
{ACAD_REACTORS
330
A4F
102
}
330
A4F
100
AcDbVisualStyle
  2
2dWireframe
 70
     4
177
     3
291
     0
 70
    58
 90
        0
176
     1
 90
        2
176
     1
 90
        0
176
     1
 90
        0
176
     1
 40
0.6
176
     1
 40
30.0
176
     1
 62
     7
420
 16777215
176
     1
 90
        1
176
     1
 90
        4
176
     1
 62
     7
176
     1
 62
   257
176
     1
 90
        1
176
     1
 90
        1
176
     1
 40
1.0
176
     1
 90
        0
176
     1
 62
   257
176
     1
 40
1.0
176
     1
 90
        1
176
     1
 90
        6
176
     1
 90
        2
176
     1
 62
     7
176
     1
 90
        5
176
     1
 90
        0
176
     1
 90
        0
176
     1
290
     0
176
     1
 90
        1
176
     1
 40
0.0
176
     1
 90
        0
176
     1
290
     1
176
     1
290
     1
176
     1
290
     0
176
     1
290
     0
176
     1
290
     0
176
     1
290
     0
176
     1
290
     0
176
     1
290
     0
176
     1
290
     0
176
     1
 90
       50
176
     1
 40
0.0
176
     1
 40
1.0
176
     1
 90
        0
176
     1
 62
    18
176
     1
 90
       50
176
     1
 90
        3
176
     1
 62
     5
420
      255
176
     1
290
     0
176
     1
 90
       50
176
     1
 90
       50
176
     1
 90
       50
176
     1
290
     0
176
     1
 90
       50
176
     1
 62
   256
176
     0
 40
1.0
176
     0
 90
        2
176
     1
  1
strokes_ogs.tif
176
     1
290
     0
176
     1
 40
1.0
176
     1
 40
1.0
176
     1
  0
VISUALSTYLE
  5
A57
102
{ACAD_REACTORS
330
A4F
102
}
330
A4F
100
AcDbVisualStyle
  2
3D Hidden
 70
     6
177
     3
291
     0
 70
    58
 90
        1
176
     1
 90
        2
176
     1
 90
        2
176
     1
 90
        0
176
     1
 40
0.6
176
     1
 40
30.0
176
     1
 62
     7
420
 16777215
176
     1
 90
        2
176
     1
 90
        2
176
     1
 62
     7
176
     1
 62
   257
176
     1
 90
        2
176
     1
 90
        1
176
     1
 40
40.0
176
     1
 90
        0
176
     1
 62
   257
176
     1
 40
1.0
176
     1
 90
        1
176
     1
 90
        6
176
     1
 90
        2
176
     1
 62
     7
176
     1
 90
        3
176
     1
 90
        0
176
     1
 90
        0
176
     1
290
     0
176
     1
 90
        1
176
     1
 40
0.0
176
     1
 90
        0
176
     1
290
     0
176
     1
290
     1
176
     1
290
     1
176
     1
290
     0
176
     1
290
     0
176
     1
290
     0
176
     1
290
     0
176
     1
290
     0
176
     1
290
     0
176
     1
 90
       50
176
     1
 40
0.0
176
     1
 40
1.0
176
     1
 90
        0
176
     1
 62
    18
176
     1
 90
       50
176
     1
 90
        3
176
     1
 62
     5
420
      255
176
     1
290
     0
176
     1
 90
       50
176
     1
 90
       50
176
     1
 90
       50
176
     1
290
     0
176
     1
 90
       50
176
     1
 62
   256
176
     0
 40
1.0
176
     0
 90
        2
176
     1
  1
strokes_ogs.tif
176
     1
290
     0
176
     1
 40
1.0
176
     1
 40
1.0
176
     1
  0
VISUALSTYLE
  5
A56
102
{ACAD_REACTORS
330
A4F
102
}
330
A4F
100
AcDbVisualStyle
  2
3dWireframe
 70
     5
177
     3
291
     0
 70
    58
 90
        0
176
     1
 90
        2
176
     1
 90
        0
176
     1
 90
        0
176
     1
 40
0.6
176
     1
 40
30.0
176
     1
 62
     7
420
 16777215
176
     1
 90
        1
176
     1
 90
        4
176
     1
 62
     7
176
     1
 62
   257
176
     1
 90
        1
176
     1
 90
        1
176
     1
 40
1.0
176
     1
 90
        0
176
     1
 62
   257
176
     1
 40
1.0
176
     1
 90
        1
176
     1
 90
        6
176
     1
 90
        2
176
     1
 62
     7
176
     1
 90
        5
176
     1
 90
        0
176
     1
 90
        0
176
     1
290
     0
176
     1
 90
        1
176
     1
 40
0.0
176
     1
 90
        0
176
     1
290
     0
176
     1
290
     1
176
     1
290
     1
176
     1
290
     0
176
     1
290
     0
176
     1
290
     0
176
     1
290
     0
176
     1
290
     0
176
     1
290
     0
176
     1
 90
       50
176
     1
 40
0.0
176
     1
 40
1.0
176
     1
 90
        0
176
     1
 62
    18
176
     1
 90
       50
176
     1
 90
        3
176
     1
 62
     5
420
      255
176
     1
290
     0
176
     1
 90
       50
176
     1
 90
       50
176
     1
 90
       50
176
     1
290
     0
176
     1
 90
       50
176
     1
 62
   256
176
     0
 40
1.0
176
     0
 90
        2
176
     1
  1
strokes_ogs.tif
176
     1
290
     0
176
     1
 40
1.0
176
     1
 40
1.0
176
     1
  0
VISUALSTYLE
  5
A54
102
{ACAD_REACTORS
330
A4F
102
}
330
A4F
100
AcDbVisualStyle
  2
Basic
 70
     7
177
     3
291
     1
 70
    58
 90
        1
176
     1
 90
        0
176
     1
 90
        1
176
     1
 90
        0
176
     1
 40
0.6
176
     1
 40
30.0
176
     1
 62
     7
420
 16777215
176
     1
 90
        0
176
     1
 90
        4
176
     1
 62
     7
176
     1
 62
   257
176
     1
 90
        1
176
     1
 90
        1
176
     1
 40
1.0
176
     1
 90
        8
176
     1
 62
     7
176
     1
 40
1.0
176
     1
 90
        1
176
     1
 90
        6
176
     1
 90
        2
176
     1
 62
     7
176
     1
 90
        5
176
     1
 90
        0
176
     1
 90
        0
176
     1
290
     0
176
     1
 90
        1
176
     1
 40
0.0
176
     1
 90
        0
176
     1
290
     0
176
     1
290
     1
176
     1
290
     1
176
     1
290
     0
176
     1
290
     0
176
     1
290
     0
176
     1
290
     0
176
     1
290
     0
176
     1
290
     0
176
     1
 90
       50
176
     1
 40
0.0
176
     1
 40
1.0
176
     1
 90
        0
176
     1
 62
    18
176
     1
 90
       50
176
     1
 90
        3
176
     1
 62
     5
420
      255
176
     1
290
     0
176
     1
 90
       50
176
     1
 90
       50
176
     1
 90
       50
176
     1
290
     0
176
     1
 90
       50
176
     1
 62
   256
176
     0
 40
1.0
176
     0
 90
        2
176
     1
  1
strokes_ogs.tif
176
     1
290
     0
176
     1
 40
1.0
176
     1
 40
1.0
176
     1
  0
VISUALSTYLE
  5
A5B
102
{ACAD_REACTORS
330
A4F
102
}
330
A4F
100
AcDbVisualStyle
  2
Brighten
 70
    12
177
     3
291
     1
 70
    58
 90
        2
176
     1
 90
        2
176
     1
 90
        0
176
     1
 90
        0
176
     1
 40
0.6
176
     1
 40
30.0
176
     1
 62
     7
420
 16777215
176
     1
 90
        1
176
     1
 90
        4
176
     1
 62
     7
176
     1
 62
   257
176
     1
 90
        1
176
     1
 90
        1
176
     1
 40
1.0
176
     1
 90
        8
176
     1
 62
     7
176
     1
 40
1.0
176
     1
 90
        1
176
     1
 90
        6
176
     1
 90
        2
176
     1
 62
     7
176
     1
 90
        5
176
     1
 90
        0
176
     1
 90
        0
176
     1
290
     0
176
     1
 90
        1
176
     1
 40
50.0
176
     1
 90
        0
176
     1
290
     0
176
     1
290
     1
176
     1
290
     1
176
     1
290
     0
176
     1
290
     0
176
     1
290
     0
176
     1
290
     0
176
     1
290
     0
176
     1
290
     0
176
     1
 90
       50
176
     1
 40
0.0
176
     1
 40
1.0
176
     1
 90
        0
176
     1
 62
    18
176
     1
 90
       50
176
     1
 90
        3
176
     1
 62
     5
420
      255
176
     1
290
     0
176
     1
 90
       50
176
     1
 90
       50
176
     1
 90
       50
176
     1
290
     0
176
     1
 90
       50
176
     1
 62
   256
176
     0
 40
1.0
176
     0
 90
        2
176
     1
  1
strokes_ogs.tif
176
     1
290
     0
176
     1
 40
1.0
176
     1
 40
1.0
176
     1
  0
VISUALSTYLE
  5
A5F
102
{ACAD_REACTORS
330
A4F
102
}
330
A4F
100
AcDbVisualStyle
  2
ColorChange
 70
    16
177
     3
291
     1
 70
    58
 90
        2
176
     1
 90
        2
176
     1
 90
        3
176
     1
 90
        0
176
     1
 40
0.6
176
     1
 40
30.0
176
     1
 62
     8
420
  8421504
176
     1
 90
        1
176
     1
 90
        4
176
     1
 62
     7
176
     1
 62
   257
176
     1
 90
        1
176
     1
 90
        1
176
     1
 40
1.0
176
     1
 90
        8
176
     1
 62
     8
420
  8421504
176
     1
 40
1.0
176
     1
 90
        1
176
     1
 90
        6
176
     1
 90
        2
176
     1
 62
     7
176
     1
 90
        5
176
     1
 90
        0
176
     1
 90
        0
176
     1
290
     0
176
     1
 90
        1
176
     1
 40
0.0
176
     1
 90
        0
176
     1
290
     0
176
     1
290
     1
176
     1
290
     1
176
     1
290
     0
176
     1
290
     0
176
     1
290
     0
176
     1
290
     0
176
     1
290
     0
176
     1
290
     0
176
     1
 90
       50
176
     1
 40
0.0
176
     1
 40
1.0
176
     1
 90
        0
176
     1
 62
    18
176
     1
 90
       50
176
     1
 90
        3
176
     1
 62
     5
420
      255
176
     1
290
     0
176
     1
 90
       50
176
     1
 90
       50
176
     1
 90
       50
176
     1
290
     0
176
     1
 90
       50
176
     1
 62
   256
176
     0
 40
1.0
176
     0
 90
        2
176
     1
  1
strokes_ogs.tif
176
     1
290
     0
176
     1
 40
1.0
176
     1
 40
1.0
176
     1
  0
VISUALSTYLE
  5
A58
102
{ACAD_REACTORS
330
A4F
102
}
330
A4F
100
AcDbVisualStyle
  2
Conceptual
 70
     9
177
     3
291
     0
 70
    58
 90
        3
176
     1
 90
        2
176
     1
 90
        0
176
     1
 90
        0
176
     1
 40
0.6
176
     1
 40
30.0
176
     1
 62
     7
420
 16777215
176
     1
 90
        2
176
     1
 90
        2
176
     1
 62
     7
176
     1
 62
   257
176
     1
 90
        1
176
     1
 90
        1
176
     1
 40
40.0
176
     1
 90
        8
176
     1
 62
     7
176
     1
 40
1.0
176
     1
 90
        1
176
     1
 90
        6
176
     1
 90
        2
176
     1
 62
     7
176
     1
 90
        3
176
     1
 90
        0
176
     1
 90
        0
176
     1
290
     0
176
     1
 90
        1
176
     1
 40
0.0
176
     1
 90
        0
176
     1
290
     0
176
     1
290
     1
176
     1
290
     1
176
     1
290
     0
176
     1
290
     0
176
     1
290
     0
176
     1
290
     0
176
     1
290
     0
176
     1
290
     0
176
     1
 90
       50
176
     1
 40
0.0
176
     1
 40
1.0
176
     1
 90
        0
176
     1
 62
    18
176
     1
 90
       50
176
     1
 90
        3
176
     1
 62
     5
420
      255
176
     1
290
     0
176
     1
 90
       50
176
     1
 90
       50
176
     1
 90
       50
176
     1
290
     0
176
     1
 90
       50
176
     1
 62
   256
176
     0
 40
1.0
176
     0
 90
        2
176
     1
  1
strokes_ogs.tif
176
     1
290
     0
176
     1
 40
1.0
176
     1
 40
1.0
176
     1
  0
VISUALSTYLE
  5
A5A
102
{ACAD_REACTORS
330
A4F
102
}
330
A4F
100
AcDbVisualStyle
  2
Dim
 70
    11
177
     3
291
     1
 70
    58
 90
        2
176
     1
 90
        2
176
     1
 90
        0
176
     1
 90
        0
176
     1
 40
0.6
176
     1
 40
30.0
176
     1
 62
     7
420
 16777215
176
     1
 90
        1
176
     1
 90
        4
176
     1
 62
     7
176
     1
 62
   257
176
     1
 90
        1
176
     1
 90
        1
176
     1
 40
1.0
176
     1
 90
        8
176
     1
 62
     7
176
     1
 40
1.0
176
     1
 90
        1
176
     1
 90
        6
176
     1
 90
        2
176
     1
 62
     7
176
     1
 90
        5
176
     1
 90
        0
176
     1
 90
        0
176
     1
290
     0
176
     1
 90
        1
176
     1
 40
-50.0
176
     1
 90
        0
176
     1
290
     0
176
     1
290
     1
176
     1
290
     1
176
     1
290
     0
176
     1
290
     0
176
     1
290
     0
176
     1
290
     0
176
     1
290
     0
176
     1
290
     0
176
     1
 90
       50
176
     1
 40
0.0
176
     1
 40
1.0
176
     1
 90
        0
176
     1
 62
    18
176
     1
 90
       50
176
     1
 90
        3
176
     1
 62
     5
420
      255
176
     1
290
     0
176
     1
 90
       50
176
     1
 90
       50
176
     1
 90
       50
176
     1
290
     0
176
     1
 90
       50
176
     1
 62
   256
176
     0
 40
1.0
176
     0
 90
        2
176
     1
  1
strokes_ogs.tif
176
     1
290
     0
176
     1
 40
1.0
176
     1
 40
1.0
176
     1
  0
VISUALSTYLE
  5
CC8
102
{ACAD_REACTORS
330
A4F
102
}
330
A4F
100
AcDbVisualStyle
  2
EdgeColorOff
 70
    22
177
     3
291
     1
 70
    58
 90
        2
176
     0
 90
        2
176
     0
 90
        0
176
     0
 90
        0
176
     0
 40
0.6
176
     0
 40
30.0
176
     0
 62
     7
420
 16777215
176
     0
 90
        1
176
     0
 90
        4
176
     0
 62
     7
176
     0
 62
   257
176
     0
 90
        1
176
     0
 90
        1
176
     0
 40
1.0
176
     0
 90
        8
176
     2
 62
     7
176
     0
 40
1.0
176
     0
 90
        1
176
     0
 90
        6
176
     0
 90
        2
176
     0
 62
     7
176
     0
 90
        5
176
     0
 90
        0
176
     0
 90
        0
176
     0
290
     0
176
     0
 90
        1
176
     0
 40
0.0
176
     0
 90
        0
176
     0
290
     0
176
     0
290
     1
176
     0
290
     1
176
     0
290
     0
176
     0
290
     0
176
     0
290
     0
176
     0
290
     0
176
     0
290
     0
176
     0
290
     0
176
     0
 90
       50
176
     0
 40
0.0
176
     0
 40
1.0
176
     0
 90
        0
176
     0
 62
    18
176
     0
 90
       50
176
     0
 90
        3
176
     0
 62
     5
420
      255
176
     0
290
     0
176
     0
 90
       50
176
     0
 90
       50
176
     0
 90
       50
176
     0
290
     0
176
     0
 90
       50
176
     0
 62
   256
176
     0
 40
1.0
176
     0
 90
        2
176
     0
  1
strokes_ogs.tif
176
     0
290
     0
176
     0
 40
1.0
176
     0
 40
1.0
176
     0
  0
VISUALSTYLE
  5
A5E
102
{ACAD_REACTORS
330
A4F
102
}
330
A4F
100
AcDbVisualStyle
  2
Facepattern
 70
    15
177
     3
291
     1
 70
    58
 90
        2
176
     1
 90
        2
176
     1
 90
        0
176
     1
 90
        0
176
     1
 40
0.6
176
     1
 40
30.0
176
     1
 62
     7
420
 16777215
176
     1
 90
        1
176
     1
 90
        4
176
     1
 62
     7
176
     1
 62
   257
176
     1
 90
        1
176
     1
 90
        1
176
     1
 40
1.0
176
     1
 90
        8
176
     1
 62
     7
176
     1
 40
1.0
176
     1
 90
        1
176
     1
 90
        6
176
     1
 90
        2
176
     1
 62
     7
176
     1
 90
        5
176
     1
 90
        0
176
     1
 90
        0
176
     1
290
     0
176
     1
 90
        1
176
     1
 40
0.0
176
     1
 90
        0
176
     1
290
     0
176
     1
290
     1
176
     1
290
     1
176
     1
290
     0
176
     1
290
     0
176
     1
290
     0
176
     1
290
     0
176
     1
290
     0
176
     1
290
     0
176
     1
 90
       50
176
     1
 40
0.0
176
     1
 40
1.0
176
     1
 90
        0
176
     1
 62
    18
176
     1
 90
       50
176
     1
 90
        3
176
     1
 62
     5
420
      255
176
     1
290
     0
176
     1
 90
       50
176
     1
 90
       50
176
     1
 90
       50
176
     1
290
     0
176
     1
 90
       50
176
     1
 62
   256
176
     0
 40
1.0
176
     0
 90
        2
176
     1
  1
strokes_ogs.tif
176
     1
290
     0
176
     1
 40
1.0
176
     1
 40
1.0
176
     1
  0
VISUALSTYLE
  5
A50
102
{ACAD_REACTORS
330
A4F
102
}
330
A4F
100
AcDbVisualStyle
  2
Flat
 70
     0
177
     3
291
     1
 70
    58
 90
        2
176
     1
 90
        1
176
     1
 90
        1
176
     1
 90
        2
176
     1
 40
0.6
176
     1
 40
30.0
176
     1
 62
     7
420
 16777215
176
     1
 90
        0
176
     1
 90
        4
176
     1
 62
     7
176
     1
 62
   257
176
     1
 90
        1
176
     1
 90
        1
176
     1
 40
1.0
176
     1
 90
        8
176
     1
 62
     7
176
     1
 40
1.0
176
     1
 90
        1
176
     1
 90
        6
176
     1
 90
        2
176
     1
 62
     7
176
     1
 90
        5
176
     1
 90
        0
176
     1
 90
        0
176
     1
290
     0
176
     1
 90
       13
176
     1
 40
0.0
176
     1
 90
        0
176
     1
290
     0
176
     1
290
     1
176
     1
290
     1
176
     1
290
     0
176
     1
290
     0
176
     1
290
     0
176
     1
290
     0
176
     1
290
     0
176
     1
290
     0
176
     1
 90
       50
176
     1
 40
0.0
176
     1
 40
1.0
176
     1
 90
        0
176
     1
 62
    18
176
     1
 90
       50
176
     1
 90
        3
176
     1
 62
     5
420
      255
176
     1
290
     0
176
     1
 90
       50
176
     1
 90
       50
176
     1
 90
       50
176
     1
290
     0
176
     1
 90
       50
176
     1
 62
   256
176
     0
 40
1.0
176
     0
 90
        2
176
     1
  1
strokes_ogs.tif
176
     1
290
     0
176
     1
 40
1.0
176
     1
 40
1.0
176
     1
  0
VISUALSTYLE
  5
A51
102
{ACAD_REACTORS
330
A4F
102
}
330
A4F
100
AcDbVisualStyle
  2
FlatWithEdges
 70
     1
177
     3
291
     1
 70
    58
 90
        2
176
     1
 90
        1
176
     1
 90
        1
176
     1
 90
        2
176
     1
 40
0.6
176
     1
 40
30.0
176
     1
 62
     7
420
 16777215
176
     1
 90
        1
176
     1
 90
        4
176
     1
 62
     7
176
     1
 62
   257
176
     1
 90
        1
176
     1
 90
        1
176
     1
 40
1.0
176
     1
 90
        0
176
     1
 62
   257
176
     1
 40
1.0
176
     1
 90
        1
176
     1
 90
        6
176
     1
 90
        2
176
     1
 62
     7
176
     1
 90
        5
176
     1
 90
        0
176
     1
 90
        0
176
     1
290
     0
176
     1
 90
       13
176
     1
 40
0.0
176
     1
 90
        0
176
     1
290
     0
176
     1
290
     1
176
     1
290
     1
176
     1
290
     0
176
     1
290
     0
176
     1
290
     0
176
     1
290
     0
176
     1
290
     0
176
     1
290
     0
176
     1
 90
       50
176
     1
 40
0.0
176
     1
 40
1.0
176
     1
 90
        0
176
     1
 62
    18
176
     1
 90
       50
176
     1
 90
        3
176
     1
 62
     5
420
      255
176
     1
290
     0
176
     1
 90
       50
176
     1
 90
       50
176
     1
 90
       50
176
     1
290
     0
176
     1
 90
       50
176
     1
 62
   256
176
     0
 40
1.0
176
     0
 90
        2
176
     1
  1
strokes_ogs.tif
176
     1
290
     0
176
     1
 40
1.0
176
     1
 40
1.0
176
     1
  0
VISUALSTYLE
  5
A52
102
{ACAD_REACTORS
330
A4F
102
}
330
A4F
100
AcDbVisualStyle
  2
Gouraud
 70
     2
177
     3
291
     1
 70
    58
 90
        2
176
     1
 90
        2
176
     1
 90
        1
176
     1
 90
        2
176
     1
 40
0.6
176
     1
 40
30.0
176
     1
 62
     7
420
 16777215
176
     1
 90
        0
176
     1
 90
        4
176
     1
 62
     7
176
     1
 62
   257
176
     1
 90
        1
176
     1
 90
        1
176
     1
 40
1.0
176
     1
 90
        0
176
     1
 62
     7
176
     1
 40
1.0
176
     1
 90
        1
176
     1
 90
        6
176
     1
 90
        2
176
     1
 62
     7
176
     1
 90
        5
176
     1
 90
        0
176
     1
 90
        0
176
     1
290
     0
176
     1
 90
       13
176
     1
 40
0.0
176
     1
 90
        0
176
     1
290
     0
176
     1
290
     1
176
     1
290
     1
176
     1
290
     0
176
     1
290
     0
176
     1
290
     0
176
     1
290
     0
176
     1
290
     0
176
     1
290
     0
176
     1
 90
       50
176
     1
 40
0.0
176
     1
 40
1.0
176
     1
 90
        0
176
     1
 62
    18
176
     1
 90
       50
176
     1
 90
        3
176
     1
 62
     5
420
      255
176
     1
290
     0
176
     1
 90
       50
176
     1
 90
       50
176
     1
 90
       50
176
     1
290
     0
176
     1
 90
       50
176
     1
 62
   256
176
     0
 40
1.0
176
     0
 90
        2
176
     1
  1
strokes_ogs.tif
176
     1
290
     0
176
     1
 40
1.0
176
     1
 40
1.0
176
     1
  0
VISUALSTYLE
  5
A53
102
{ACAD_REACTORS
330
A4F
102
}
330
A4F
100
AcDbVisualStyle
  2
GouraudWithEdges
 70
     3
177
     3
291
     1
 70
    58
 90
        2
176
     1
 90
        2
176
     1
 90
        1
176
     1
 90
        2
176
     1
 40
0.6
176
     1
 40
30.0
176
     1
 62
     7
420
 16777215
176
     1
 90
        1
176
     1
 90
        4
176
     1
 62
     7
176
     1
 62
   257
176
     1
 90
        1
176
     1
 90
        1
176
     1
 40
1.0
176
     1
 90
        0
176
     1
 62
   257
176
     1
 40
1.0
176
     1
 90
        1
176
     1
 90
        6
176
     1
 90
        2
176
     1
 62
     7
176
     1
 90
        5
176
     1
 90
        0
176
     1
 90
        0
176
     1
290
     0
176
     1
 90
       13
176
     1
 40
0.0
176
     1
 90
        0
176
     1
290
     0
176
     1
290
     1
176
     1
290
     1
176
     1
290
     0
176
     1
290
     0
176
     1
290
     0
176
     1
290
     0
176
     1
290
     0
176
     1
290
     0
176
     1
 90
       50
176
     1
 40
0.0
176
     1
 40
1.0
176
     1
 90
        0
176
     1
 62
    18
176
     1
 90
       50
176
     1
 90
        3
176
     1
 62
     5
420
      255
176
     1
290
     0
176
     1
 90
       50
176
     1
 90
       50
176
     1
 90
       50
176
     1
290
     0
176
     1
 90
       50
176
     1
 62
   256
176
     0
 40
1.0
176
     0
 90
        2
176
     1
  1
strokes_ogs.tif
176
     1
290
     0
176
     1
 40
1.0
176
     1
 40
1.0
176
     1
  0
VISUALSTYLE
  5
CC0
102
{ACAD_REACTORS
330
A4F
102
}
330
A4F
100
AcDbVisualStyle
  2
Hidden
 70
     6
177
     3
291
     0
 70
    58
 90
        1
176
     1
 90
        2
176
     1
 90
        2
176
     1
 90
        0
176
     1
 40
0.6
176
     1
 40
30.0
176
     1
 62
     7
420
 16777215
176
     1
 90
        2
176
     1
 90
        2
176
     1
 62
     7
176
     1
 62
   257
176
     1
 90
        2
176
     1
 90
        1
176
     1
 40
40.0
176
     1
 90
        0
176
     1
 62
   257
176
     1
 40
1.0
176
     1
 90
        1
176
     1
 90
        6
176
     1
 90
        2
176
     1
 62
     7
176
     1
 90
        3
176
     1
 90
        0
176
     1
 90
        0
176
     1
290
     0
176
     1
 90
        1
176
     1
 40
0.0
176
     1
 90
        0
176
     1
290
     0
176
     1
290
     1
176
     1
290
     1
176
     1
290
     0
176
     1
290
     0
176
     1
290
     0
176
     1
290
     0
176
     1
290
     0
176
     1
290
     0
176
     1
 90
       50
176
     1
 40
0.0
176
     1
 40
1.0
176
     1
 90
        0
176
     1
 62
    18
176
     1
 90
       50
176
     1
 90
        3
176
     1
 62
     5
420
      255
176
     1
290
     0
176
     1
 90
       50
176
     1
 90
       50
176
     1
 90
       50
176
     1
290
     0
176
     1
 90
       50
176
     1
 62
   256
176
     0
 40
1.0
176
     0
 90
        2
176
     1
  1
strokes_ogs.tif
176
     1
290
     0
176
     1
 40
1.0
176
     1
 40
1.0
176
     1
  0
VISUALSTYLE
  5
CC6
102
{ACAD_REACTORS
330
A4F
102
}
330
A4F
100
AcDbVisualStyle
  2
JitterOff
 70
    20
177
     3
291
     1
 70
    58
 90
        2
176
     0
 90
        2
176
     0
 90
        0
176
     0
 90
        0
176
     0
 40
0.6
176
     0
 40
30.0
176
     0
 62
     7
420
 16777215
176
     0
 90
        1
176
     0
 90
        4
176
     0
 62
     7
176
     0
 62
   257
176
     0
 90
        1
176
     0
 90
        1
176
     0
 40
1.0
176
     0
 90
       10
176
     2
 62
     7
176
     0
 40
1.0
176
     0
 90
        1
176
     0
 90
        6
176
     0
 90
        2
176
     0
 62
     7
176
     0
 90
        5
176
     0
 90
        0
176
     0
 90
        0
176
     0
290
     0
176
     0
 90
        1
176
     0
 40
0.0
176
     0
 90
        0
176
     0
290
     0
176
     0
290
     1
176
     0
290
     1
176
     0
290
     0
176
     0
290
     0
176
     0
290
     0
176
     0
290
     0
176
     0
290
     0
176
     0
290
     0
176
     0
 90
       50
176
     0
 40
0.0
176
     0
 40
1.0
176
     0
 90
        0
176
     0
 62
    18
176
     0
 90
       50
176
     0
 90
        3
176
     0
 62
     5
420
      255
176
     0
290
     0
176
     0
 90
       50
176
     0
 90
       50
176
     0
 90
       50
176
     0
290
     0
176
     0
 90
       50
176
     0
 62
   256
176
     0
 40
1.0
176
     0
 90
        2
176
     0
  1
strokes_ogs.tif
176
     0
290
     0
176
     0
 40
1.0
176
     0
 40
1.0
176
     0
  0
VISUALSTYLE
  5
A5D
102
{ACAD_REACTORS
330
A4F
102
}
330
A4F
100
AcDbVisualStyle
  2
Linepattern
 70
    14
177
     3
291
     1
 70
    58
 90
        2
176
     1
 90
        2
176
     1
 90
        0
176
     1
 90
        0
176
     1
 40
0.6
176
     1
 40
30.0
176
     1
 62
     7
420
 16777215
176
     1
 90
        1
176
     1
 90
        4
176
     1
 62
     7
176
     1
 62
   257
176
     1
 90
        7
176
     1
 90
        7
176
     1
 40
1.0
176
     1
 90
        8
176
     1
 62
     7
176
     1
 40
1.0
176
     1
 90
        1
176
     1
 90
        6
176
     1
 90
        2
176
     1
 62
     7
176
     1
 90
        5
176
     1
 90
        0
176
     1
 90
        0
176
     1
290
     0
176
     1
 90
        1
176
     1
 40
0.0
176
     1
 90
        0
176
     1
290
     0
176
     1
290
     1
176
     1
290
     1
176
     1
290
     0
176
     1
290
     0
176
     1
290
     0
176
     1
290
     0
176
     1
290
     0
176
     1
290
     0
176
     1
 90
       50
176
     1
 40
0.0
176
     1
 40
1.0
176
     1
 90
        0
176
     1
 62
    18
176
     1
 90
       50
176
     1
 90
        3
176
     1
 62
     5
420
      255
176
     1
290
     0
176
     1
 90
       50
176
     1
 90
       50
176
     1
 90
       50
176
     1
290
     0
176
     1
 90
       50
176
     1
 62
   256
176
     0
 40
1.0
176
     0
 90
        2
176
     1
  1
strokes_ogs.tif
176
     1
290
     0
176
     1
 40
1.0
176
     1
 40
1.0
176
     1
  0
VISUALSTYLE
  5
CC7
102
{ACAD_REACTORS
330
A4F
102
}
330
A4F
100
AcDbVisualStyle
  2
OverhangOff
 70
    21
177
     3
291
     1
 70
    58
 90
        2
176
     0
 90
        2
176
     0
 90
        0
176
     0
 90
        0
176
     0
 40
0.6
176
     0
 40
30.0
176
     0
 62
     7
420
 16777215
176
     0
 90
        1
176
     0
 90
        4
176
     0
 62
     7
176
     0
 62
   257
176
     0
 90
        1
176
     0
 90
        1
176
     0
 40
1.0
176
     0
 90
        9
176
     2
 62
     7
176
     0
 40
1.0
176
     0
 90
        1
176
     0
 90
        6
176
     0
 90
        2
176
     0
 62
     7
176
     0
 90
        5
176
     0
 90
        0
176
     0
 90
        0
176
     0
290
     0
176
     0
 90
        1
176
     0
 40
0.0
176
     0
 90
        0
176
     0
290
     0
176
     0
290
     1
176
     0
290
     1
176
     0
290
     0
176
     0
290
     0
176
     0
290
     0
176
     0
290
     0
176
     0
290
     0
176
     0
290
     0
176
     0
 90
       50
176
     0
 40
0.0
176
     0
 40
1.0
176
     0
 90
        0
176
     0
 62
    18
176
     0
 90
       50
176
     0
 90
        3
176
     0
 62
     5
420
      255
176
     0
290
     0
176
     0
 90
       50
176
     0
 90
       50
176
     0
 90
       50
176
     0
290
     0
176
     0
 90
       50
176
     0
 62
   256
176
     0
 40
1.0
176
     0
 90
        2
176
     0
  1
strokes_ogs.tif
176
     0
290
     0
176
     0
 40
1.0
176
     0
 40
1.0
176
     0
  0
VISUALSTYLE
  5
A59
102
{ACAD_REACTORS
330
A4F
102
}
330
A4F
100
AcDbVisualStyle
  2
Realistic
 70
     8
177
     3
291
     0
 70
    58
 90
        2
176
     1
 90
        2
176
     1
 90
        0
176
     1
 90
        0
176
     1
 40
0.6
176
     1
 40
30.0
176
     1
 62
     7
420
 16777215
176
     1
 90
        1
176
     1
 90
        0
176
     1
 62
     7
176
     1
 62
   257
176
     1
 90
        1
176
     1
 90
        1
176
     1
 40
1.0
176
     1
 90
        8
176
     1
 62
     8
420
  7895160
176
     1
 40
1.0
176
     1
 90
        1
176
     1
 90
        6
176
     1
 90
        2
176
     1
 62
     7
176
     1
 90
        5
176
     1
 90
        0
176
     1
 90
        0
176
     1
290
     0
176
     1
 90
       13
176
     1
 40
0.0
176
     1
 90
        0
176
     1
290
     0
176
     1
290
     1
176
     1
290
     1
176
     1
290
     0
176
     1
290
     0
176
     1
290
     0
176
     1
290
     0
176
     1
290
     0
176
     1
290
     0
176
     1
 90
       50
176
     1
 40
0.0
176
     1
 40
1.0
176
     1
 90
        0
176
     1
 62
    18
176
     1
 90
       50
176
     1
 90
        3
176
     1
 62
     5
420
      255
176
     1
290
     0
176
     1
 90
       50
176
     1
 90
       50
176
     1
 90
       50
176
     1
290
     0
176
     1
 90
       50
176
     1
 62
   256
176
     0
 40
1.0
176
     0
 90
        2
176
     1
  1
strokes_ogs.tif
176
     1
290
     0
176
     1
 40
1.0
176
     1
 40
1.0
176
     1
  0
VISUALSTYLE
  5
CC5
102
{ACAD_REACTORS
330
A4F
102
}
330
A4F
100
AcDbVisualStyle
  2
Shaded
 70
    27
177
     3
291
     0
 70
    58
 90
        2
176
     1
 90
        2
176
     1
 90
        1
176
     1
 90
        2
176
     1
 40
0.6
176
     1
 40
30.0
176
     1
 62
     7
420
 16777215
176
     1
 90
        0
176
     1
 90
        4
176
     1
 62
     7
176
     1
 62
   257
176
     1
 90
        1
176
     1
 90
        1
176
     1
 40
1.0
176
     1
 90
        8
176
     1
 62
   257
176
     1
 40
1.0
176
     1
 90
        1
176
     1
 90
        6
176
     1
 90
        2
176
     1
 62
     8
420
  7895160
176
     1
 90
        3
176
     1
 90
        0
176
     1
 90
        0
176
     1
290
     0
176
     1
 90
        5
176
     1
 40
0.0
176
     1
 90
        0
176
     1
290
     0
176
     1
290
     1
176
     1
290
     1
176
     1
290
     0
176
     1
290
     0
176
     1
290
     0
176
     1
290
     0
176
     1
290
     0
176
     1
290
     0
176
     1
 90
       50
176
     1
 40
0.0
176
     1
 40
1.0
176
     1
 90
        0
176
     1
 62
    18
176
     1
 90
       50
176
     1
 90
        3
176
     1
 62
     5
420
      255
176
     1
290
     0
176
     1
 90
       50
176
     1
 90
       50
176
     1
 90
       50
176
     1
290
     0
176
     1
 90
       50
176
     1
 62
   256
176
     0
 40
1.0
176
     0
 90
        2
176
     1
  1
strokes_ogs.tif
176
     1
290
     0
176
     1
 40
1.0
176
     1
 40
1.0
176
     1
  0
VISUALSTYLE
  5
CC4
102
{ACAD_REACTORS
330
A4F
102
}
330
A4F
100
AcDbVisualStyle
  2
Shaded with edges
 70
    26
177
     3
291
     0
 70
    58
 90
        2
176
     1
 90
        2
176
     1
 90
        1
176
     1
 90
        2
176
     1
 40
0.6
176
     1
 40
30.0
176
     1
 62
     7
420
 16777215
176
     1
 90
        1
176
     1
 90
       10
176
     1
 62
     7
176
     1
 62
   257
176
     1
 90
        2
176
     1
 90
        1
176
     1
 40
1.0
176
     1
 90
        8
176
     1
 62
   257
176
     1
 40
1.0
176
     1
 90
        1
176
     1
 90
        6
176
     1
 90
        2
176
     1
 62
     7
176
     1
 90
        3
176
     1
 90
        0
176
     1
 90
        0
176
     1
290
     0
176
     1
 90
        5
176
     1
 40
0.0
176
     1
 90
        0
176
     1
290
     0
176
     1
290
     1
176
     1
290
     1
176
     1
290
     0
176
     1
290
     0
176
     1
290
     0
176
     1
290
     0
176
     1
290
     0
176
     1
290
     0
176
     1
 90
       50
176
     1
 40
0.0
176
     1
 40
1.0
176
     1
 90
        0
176
     1
 62
    18
176
     1
 90
       50
176
     1
 90
        3
176
     1
 62
     5
420
      255
176
     1
290
     0
176
     1
 90
       50
176
     1
 90
       50
176
     1
 90
       50
176
     1
290
     0
176
     1
 90
       50
176
     1
 62
   256
176
     0
 40
1.0
176
     0
 90
        2
176
     1
  1
strokes_ogs.tif
176
     1
290
     0
176
     1
 40
1.0
176
     1
 40
1.0
176
     1
  0
VISUALSTYLE
  5
CC1
102
{ACAD_REACTORS
330
A4F
102
}
330
A4F
100
AcDbVisualStyle
  2
Shades of Gray
 70
    23
177
     3
291
     0
 70
    58
 90
        2
176
     1
 90
        2
176
     1
 90
        3
176
     1
 90
        0
176
     1
 40
0.6
176
     1
 40
30.0
176
     1
 62
     7
420
 16777215
176
     1
 90
        2
176
     1
 90
        2
176
     1
 62
     7
176
     1
 62
     7
176
     1
 90
        1
176
     1
 90
        1
176
     1
 40
40.0
176
     1
 90
        8
176
     1
 62
     7
176
     1
 40
1.0
176
     1
 90
        1
176
     1
 90
        6
176
     1
 90
        2
176
     1
 62
     7
176
     1
 90
        3
176
     1
 90
        0
176
     1
 90
        0
176
     1
290
     0
176
     1
 90
        1
176
     1
 40
0.0
176
     1
 90
        0
176
     1
290
     0
176
     1
290
     1
176
     1
290
     1
176
     1
290
     0
176
     1
290
     0
176
     1
290
     0
176
     1
290
     0
176
     1
290
     0
176
     1
290
     0
176
     1
 90
       50
176
     1
 40
0.0
176
     1
 40
1.0
176
     1
 90
        0
176
     1
 62
    18
176
     1
 90
       50
176
     1
 90
        3
176
     1
 62
     5
420
      255
176
     1
290
     0
176
     1
 90
       50
176
     1
 90
       50
176
     1
 90
       50
176
     1
290
     0
176
     1
 90
       50
176
     1
 62
   256
176
     0
 40
1.0
176
     0
 90
        2
176
     1
  1
strokes_ogs.tif
176
     1
290
     0
176
     1
 40
1.0
176
     1
 40
1.0
176
     1
  0
VISUALSTYLE
  5
CC2
102
{ACAD_REACTORS
330
A4F
102
}
330
A4F
100
AcDbVisualStyle
  2
Sketchy
 70
    24
177
     3
291
     0
 70
    58
 90
        1
176
     1
 90
        2
176
     1
 90
        2
176
     1
 90
        0
176
     1
 40
0.6
176
     1
 40
30.0
176
     1
 62
     7
420
 16777215
176
     1
 90
        2
176
     1
 90
        2
176
     1
 62
     7
176
     1
 62
     7
176
     1
 90
        1
176
     1
 90
        1
176
     1
 40
40.0
176
     1
 90
       11
176
     1
 62
     7
176
     1
 40
1.0
176
     1
 90
        1
176
     1
 90
        6
176
     1
 90
        2
176
     1
 62
     7
176
     1
 90
        6
176
     1
 90
        0
176
     1
 90
        0
176
     1
290
     0
176
     1
 90
        1
176
     1
 40
0.0
176
     1
 90
        0
176
     1
290
     0
176
     1
290
     1
176
     1
290
     1
176
     1
290
     0
176
     1
290
     0
176
     1
290
     0
176
     1
290
     0
176
     1
290
     0
176
     1
290
     0
176
     1
 90
       50
176
     1
 40
0.0
176
     1
 40
1.0
176
     1
 90
        0
176
     1
 62
    18
176
     1
 90
       50
176
     1
 90
        3
176
     1
 62
     5
420
      255
176
     1
290
     0
176
     1
 90
       50
176
     1
 90
       50
176
     1
 90
       50
176
     1
290
     0
176
     1
 90
       50
176
     1
 62
   256
176
     0
 40
1.0
176
     0
 90
        2
176
     1
  1
strokes_ogs.tif
176
     1
290
     0
176
     1
 40
1.0
176
     1
 40
1.0
176
     1
  0
VISUALSTYLE
  5
A5C
102
{ACAD_REACTORS
330
A4F
102
}
330
A4F
100
AcDbVisualStyle
  2
Thicken
 70
    13
177
     3
291
     1
 70
    58
 90
        2
176
     1
 90
        2
176
     1
 90
        0
176
     1
 90
        0
176
     1
 40
0.6
176
     1
 40
30.0
176
     1
 62
     7
420
 16777215
176
     1
 90
        1
176
     1
 90
        4
176
     1
 62
     7
176
     1
 62
   257
176
     1
 90
        1
176
     1
 90
        1
176
     1
 40
1.0
176
     1
 90
       12
176
     1
 62
     7
176
     1
 40
1.0
176
     1
 90
        1
176
     1
 90
        6
176
     1
 90
        2
176
     1
 62
     7
176
     1
 90
        5
176
     1
 90
        0
176
     1
 90
        0
176
     1
290
     0
176
     1
 90
        1
176
     1
 40
0.0
176
     1
 90
        0
176
     1
290
     0
176
     1
290
     1
176
     1
290
     1
176
     1
290
     0
176
     1
290
     0
176
     1
290
     0
176
     1
290
     0
176
     1
290
     0
176
     1
290
     0
176
     1
 90
       50
176
     1
 40
0.0
176
     1
 40
1.0
176
     1
 90
        0
176
     1
 62
    18
176
     1
 90
       50
176
     1
 90
        3
176
     1
 62
     5
420
      255
176
     1
290
     0
176
     1
 90
       50
176
     1
 90
       50
176
     1
 90
       50
176
     1
290
     0
176
     1
 90
       50
176
     1
 62
   256
176
     0
 40
1.0
176
     0
 90
        2
176
     1
  1
strokes_ogs.tif
176
     1
290
     0
176
     1
 40
1.0
176
     1
 40
1.0
176
     1
  0
VISUALSTYLE
  5
CBF
102
{ACAD_REACTORS
330
A4F
102
}
330
A4F
100
AcDbVisualStyle
  2
Wireframe
 70
     5
177
     3
291
     0
 70
    58
 90
        0
176
     1
 90
        2
176
     1
 90
        0
176
     1
 90
        0
176
     1
 40
0.6
176
     1
 40
30.0
176
     1
 62
     7
420
 16777215
176
     1
 90
        1
176
     1
 90
        4
176
     1
 62
     7
176
     1
 62
   257
176
     1
 90
        1
176
     1
 90
        1
176
     1
 40
1.0
176
     1
 90
        0
176
     1
 62
   257
176
     1
 40
1.0
176
     1
 90
        1
176
     1
 90
        6
176
     1
 90
        2
176
     1
 62
     7
176
     1
 90
        3
176
     1
 90
        0
176
     1
 90
        0
176
     1
290
     0
176
     1
 90
        1
176
     1
 40
0.0
176
     1
 90
        0
176
     1
290
     0
176
     1
290
     1
176
     1
290
     1
176
     1
290
     0
176
     1
290
     0
176
     1
290
     0
176
     1
290
     0
176
     1
290
     0
176
     1
290
     0
176
     1
 90
       50
176
     1
 40
0.0
176
     1
 40
1.0
176
     1
 90
        0
176
     1
 62
    18
176
     1
 90
       50
176
     1
 90
        3
176
     1
 62
     5
420
      255
176
     1
290
     0
176
     1
 90
       50
176
     1
 90
       50
176
     1
 90
       50
176
     1
290
     0
176
     1
 90
       50
176
     1
 62
   256
176
     0
 40
1.0
176
     0
 90
        2
176
     1
  1
strokes_ogs.tif
176
     1
290
     0
176
     1
 40
1.0
176
     1
 40
1.0
176
     1
  0
VISUALSTYLE
  5
CC3
102
{ACAD_REACTORS
330
A4F
102
}
330
A4F
100
AcDbVisualStyle
  2
X-Ray
 70
    25
177
     3
291
     0
 70
    58
 90
        2
176
     1
 90
        2
176
     1
 90
        1
176
     1
 90
        1
176
     1
 40
0.5
176
     1
 40
30.0
176
     1
 62
     7
420
 16777215
176
     1
 90
        1
176
     1
 90
        0
176
     1
 62
     7
176
     1
 62
   257
176
     1
 90
        1
176
     1
 90
        1
176
     1
 40
1.0
176
     1
 90
        8
176
     1
 62
     7
176
     1
 40
1.0
176
     1
 90
        1
176
     1
 90
        6
176
     1
 90
        2
176
     1
 62
     7
176
     1
 90
        3
176
     1
 90
        0
176
     1
 90
        0
176
     1
290
     0
176
     1
 90
       13
176
     1
 40
0.0
176
     1
 90
        0
176
     1
290
     0
176
     1
290
     1
176
     1
290
     1
176
     1
290
     0
176
     1
290
     0
176
     1
290
     0
176
     1
290
     0
176
     1
290
     0
176
     1
290
     0
176
     1
 90
       50
176
     1
 40
0.0
176
     1
 40
1.0
176
     1
 90
        0
176
     1
 62
    18
176
     1
 90
       50
176
     1
 90
        3
176
     1
 62
     5
420
      255
176
     1
290
     0
176
     1
 90
       50
176
     1
 90
       50
176
     1
 90
       50
176
     1
290
     0
176
     1
 90
       50
176
     1
 62
   256
176
     0
 40
1.0
176
     0
 90
        2
176
     1
  1
strokes_ogs.tif
176
     1
290
     0
176
     1
 40
1.0
176
     1
 40
1.0
176
     1
  0
DICTIONARYVAR
  5
AF4
102
{ACAD_REACTORS
330
5D
102
}
330
5D
100
DictionaryVariables
280
     0
  1
1:1
  0
DICTIONARYVAR
  5
AF2
102
{ACAD_REACTORS
330
5D
102
}
330
5D
100
DictionaryVariables
280
     0
  1
STANDARD
  0
DICTIONARYVAR
  5
66F
102
{ACAD_REACTORS
330
5D
102
}
330
5D
100
DictionaryVariables
280
     0
  1
STANDARD
  0
DICTIONARYVAR
  5
FFA
102
{ACAD_REACTORS
330
5D
102
}
330
5D
100
DictionaryVariables
280
     0
  1
ISO 128-34_2001
  0
DICTIONARYVAR
  5
FFB
102
{ACAD_REACTORS
330
5D
102
}
330
5D
100
DictionaryVariables
280
     0
  1
ISO 128_1982
  0
DICTIONARYVAR
  5
5E
102
{ACAD_REACTORS
330
5D
102
}
330
5D
100
DictionaryVariables
280
     0
  1
0
  0
DICTIONARYVAR
  5
3C7
102
{ACAD_REACTORS
330
5D
102
}
330
5D
100
DictionaryVariables
280
     0
  1
1
  0
DICTIONARYVAR
  5
128
102
{ACAD_REACTORS
330
5D
102
}
330
5D
100
DictionaryVariables
280
     0
  1
1
  0
DICTIONARYVAR
  5
AF6
102
{ACAD_REACTORS
330
5D
102
}
330
5D
100
DictionaryVariables
280
     0
  1
1
  0
DICTIONARYVAR
  5
AF7
102
{ACAD_REACTORS
330
5D
102
}
330
5D
100
DictionaryVariables
280
     0
  1
15
  0
DICTIONARYVAR
  5
AF5
102
{ACAD_REACTORS
330
5D
102
}
330
5D
100
DictionaryVariables
280
     0
  1
0
  0
DICTIONARYVAR
  5
AF3
102
{ACAD_REACTORS
330
5D
102
}
330
5D
100
DictionaryVariables
280
     0
  1
0
  0
DICTIONARY
  5
143
102
{ACAD_REACTORS
330
142
102
}
330
142
100
AcDbDictionary
281
     1
  0
XRECORD
  5
47D
102
{ACAD_REACTORS
330
142
102
}
330
142
100
AcDbXrecord
280
     1
 90
-1056964608
  0
XRECORD
  5
84B
102
{ACAD_REACTORS
330
849
102
}
330
849
100
AcDbXrecord
280
     1
  0
DICTIONARY
  5
13F3
102
{ACAD_REACTORS
330
13F2
102
}
330
13F2
100
AcDbDictionary
281
     1
  3
_HasBOM
350
13F9
  3
Comment
350
13F8
  3
Folder
350
13F7
  3
GEN-TITLE-DES1
350
13F5
  3
GEN-TITLE-DES2
350
13F6
  3
GEN-TITLE-NR
350
13F4
  0
LAYER_INDEX
  5
30C5
102
{ACAD_REACTORS
330
30C4
102
}
330
30C4
100
AcDbIndex
 40
2457563.65715691
100
AcDbLayerIndex
  8
0
360
30C6
 90
        0
  8
AM_0
360
30C7
 90
        1
  8
Visible Edges(ISO)
360
30C8
 90
        0
  8
Defpoints
360
30C9
 90
        0
  8
DIM
360
30CA
 90
        0
  0
DICTIONARY
  5
13FE
330
10B9
100
AcDbDictionary
280
     1
281
     1
  3
ACAD_XREC_ROUNDTRIP
360
14B0
  0
DICTIONARY
  5
13FC
330
CCC
100
AcDbDictionary
280
     1
281
     1
  3
ACAD_XREC_ROUNDTRIP
360
14AE
  0
DICTIONARY
  5
1474
330
169
100
AcDbDictionary
280
     1
281
     1
  0
DICTIONARY
  5
A40
330
A3F
100
AcDbDictionary
280
     1
281
     1
  3
BUMPTILE
360
A42
  3
DIFFUSETILE
360
A41
  3
OPACITYTILE
360
A45
  3
REFLECTIONTILE
360
A44
  3
REFRACTIONTILE
360
A46
  3
SPECULARTILE
360
A43
  0
DICTIONARY
  5
A38
330
A37
100
AcDbDictionary
280
     1
281
     1
  3
BUMPTILE
360
A3A
  3
DIFFUSETILE
360
A39
  3
OPACITYTILE
360
A3D
  3
REFLECTIONTILE
360
A3C
  3
REFRACTIONTILE
360
A3E
  3
SPECULARTILE
360
A3B
  0
DICTIONARY
  5
A48
330
A47
100
AcDbDictionary
280
     1
281
     1
  3
BUMPTILE
360
A4A
  3
DIFFUSETILE
360
A49
  3
OPACITYTILE
360
A4D
  3
REFLECTIONTILE
360
A4C
  3
REFRACTIONTILE
360
A4E
  3
SPECULARTILE
360
A4B
  0
DICTIONARY
  5
1497
330
A73
100
AcDbDictionary
280
     1
281
     1
  3
ACAD_XREC_ROUNDTRIP
360
1498
  0
DICTIONARY
  5
10BB
330
10BA
100
AcDbDictionary
280
     1
281
     1
  3
ACAD_FIELD
360
10BC
  3
ACAD_XREC_ROUNDTRIP
360
14B1
  0
DICTIONARY
  5
13FA
330
CCA
100
AcDbDictionary
280
     1
281
     1
  3
ACAD_XREC_ROUNDTRIP
360
14AD
  0
DICTIONARY
  5
AED
330
651
100
AcDbDictionary
280
     1
281
     1
  3
ACAD_ROUNDTRIP_2008_TABLESTYLE_CELLSTYLEMAP
360
46CD
  0
XRECORD
  5
13F9
102
{ACAD_REACTORS
330
13F3
102
}
330
13F3
100
AcDbXrecord
280
     1
  1
_HasBOM
  1
False
  0
XRECORD
  5
13F8
102
{ACAD_REACTORS
330
13F3
102
}
330
13F3
100
AcDbXrecord
280
     1
  1
Comment
  1

  0
XRECORD
  5
13F7
102
{ACAD_REACTORS
330
13F3
102
}
330
13F3
100
AcDbXrecord
280
     1
  1
Folder
  1

  0
XRECORD
  5
13F5
102
{ACAD_REACTORS
330
13F3
102
}
330
13F3
100
AcDbXrecord
280
     1
  1
GEN-TITLE-DES1
  1

  0
XRECORD
  5
13F6
102
{ACAD_REACTORS
330
13F3
102
}
330
13F3
100
AcDbXrecord
280
     1
  1
GEN-TITLE-DES2
  1

  0
XRECORD
  5
13F4
102
{ACAD_REACTORS
330
13F3
102
}
330
13F3
100
AcDbXrecord
280
     1
  1
GEN-TITLE-NR
  1

  0
IDBUFFER
  5
30C6
330
0
100
AcDbIdBuffer
  0
IDBUFFER
  5
30C7
330
0
100
AcDbIdBuffer
330
3B7D
  0
IDBUFFER
  5
30C8
330
0
100
AcDbIdBuffer
  0
IDBUFFER
  5
30C9
330
0
100
AcDbIdBuffer
  0
IDBUFFER
  5
30CA
330
0
100
AcDbIdBuffer
  0
XRECORD
  5
14B0
102
{ACAD_REACTORS
330
13FE
102
}
330
13FE
100
AcDbXrecord
280
     1
102
DISPLAYNAME
  1
ISO 128-34:2001
102
FLAGS
 90
        1
  0
XRECORD
  5
14AE
102
{ACAD_REACTORS
330
13FC
102
}
330
13FC
100
AcDbXrecord
280
     1
102
DISPLAYNAME
  1
Metric50
102
FLAGS
 90
        0
  0
XRECORD
  5
A42
102
{ACAD_REACTORS
330
A40
102
}
330
A40
100
AcDbXrecord
280
     1
270
     1
271
     1
  0
XRECORD
  5
A41
102
{ACAD_REACTORS
330
A40
102
}
330
A40
100
AcDbXrecord
280
     1
270
     1
271
     1
  0
XRECORD
  5
A45
102
{ACAD_REACTORS
330
A40
102
}
330
A40
100
AcDbXrecord
280
     1
270
     1
271
     1
  0
XRECORD
  5
A44
102
{ACAD_REACTORS
330
A40
102
}
330
A40
100
AcDbXrecord
280
     1
270
     1
271
     1
  0
XRECORD
  5
A46
102
{ACAD_REACTORS
330
A40
102
}
330
A40
100
AcDbXrecord
280
     1
270
     1
271
     1
  0
XRECORD
  5
A43
102
{ACAD_REACTORS
330
A40
102
}
330
A40
100
AcDbXrecord
280
     1
270
     1
271
     1
  0
XRECORD
  5
A3A
102
{ACAD_REACTORS
330
A38
102
}
330
A38
100
AcDbXrecord
280
     1
270
     1
271
     1
  0
XRECORD
  5
A39
102
{ACAD_REACTORS
330
A38
102
}
330
A38
100
AcDbXrecord
280
     1
270
     1
271
     1
  0
XRECORD
  5
A3D
102
{ACAD_REACTORS
330
A38
102
}
330
A38
100
AcDbXrecord
280
     1
270
     1
271
     1
  0
XRECORD
  5
A3C
102
{ACAD_REACTORS
330
A38
102
}
330
A38
100
AcDbXrecord
280
     1
270
     1
271
     1
  0
XRECORD
  5
A3E
102
{ACAD_REACTORS
330
A38
102
}
330
A38
100
AcDbXrecord
280
     1
270
     1
271
     1
  0
XRECORD
  5
A3B
102
{ACAD_REACTORS
330
A38
102
}
330
A38
100
AcDbXrecord
280
     1
270
     1
271
     1
  0
XRECORD
  5
A4A
102
{ACAD_REACTORS
330
A48
102
}
330
A48
100
AcDbXrecord
280
     1
270
     1
271
     1
  0
XRECORD
  5
A49
102
{ACAD_REACTORS
330
A48
102
}
330
A48
100
AcDbXrecord
280
     1
270
     1
271
     1
  0
XRECORD
  5
A4D
102
{ACAD_REACTORS
330
A48
102
}
330
A48
100
AcDbXrecord
280
     1
270
     1
271
     1
  0
XRECORD
  5
A4C
102
{ACAD_REACTORS
330
A48
102
}
330
A48
100
AcDbXrecord
280
     1
270
     1
271
     1
  0
XRECORD
  5
A4E
102
{ACAD_REACTORS
330
A48
102
}
330
A48
100
AcDbXrecord
280
     1
270
     1
271
     1
  0
XRECORD
  5
A4B
102
{ACAD_REACTORS
330
A48
102
}
330
A48
100
AcDbXrecord
280
     1
270
     1
271
     1
  0
XRECORD
  5
1498
102
{ACAD_REACTORS
330
1497
102
}
330
1497
100
AcDbXrecord
280
     1
102
ACAD_ROUNDTRIP_2012_MLEADER_STYLE
298
     1
  0
DICTIONARY
  5
10BC
102
{ACAD_REACTORS
330
10BB
102
}
330
10BB
100
AcDbDictionary
280
     1
281
     1
  3
TEXT
360
10BD
  0
XRECORD
  5
14B1
102
{ACAD_REACTORS
330
10BB
102
}
330
10BB
100
AcDbXrecord
280
     1
102
DISPLAYNAME
  1
ISO 128:1982
102
FLAGS
 90
        1
  0
XRECORD
  5
14AD
102
{ACAD_REACTORS
330
13FA
102
}
330
13FA
100
AcDbXrecord
280
     1
102
DISPLAYNAME
  1
Metric50
102
FLAGS
 90
        0
  0
CELLSTYLEMAP
  5
46CD
102
{ACAD_REACTORS
330
AED
102
}
330
AED
100
AcDbCellStyleMap
 90
        3
300
CELLSTYLE
  1
TABLEFORMAT_BEGIN
 90
        5
170
     1
 91
        0
 92
    32768
 62
   257
 93
        1
300
CONTENTFORMAT
  1
CONTENTFORMAT_BEGIN
 90
        0
 91
        0
 92
        4
 93
        0
300

 40
0.0
140
1.0
 94
        5
 62
     0
340
10
144
6.0
309
CONTENTFORMAT_END
171
     1
301
MARGIN
  1
CELLMARGIN_BEGIN
 40
1.5
 40
1.5
 40
1.5
 40
1.5
 40
0.18
 40
0.18
309
CELLMARGIN_END
 94
        6
 95
        1
302
GRIDFORMAT
  1
GRIDFORMAT_BEGIN
 90
        0
 91
        1
 62
     0
 92
       -2
340
0
 93
        0
 40
0.045
309
GRIDFORMAT_END
 95
        2
302
GRIDFORMAT
  1
GRIDFORMAT_BEGIN
 90
        0
 91
        1
 62
     0
 92
       -2
340
0
 93
        0
 40
0.045
309
GRIDFORMAT_END
 95
        4
302
GRIDFORMAT
  1
GRIDFORMAT_BEGIN
 90
        0
 91
        1
 62
     0
 92
       -2
340
0
 93
        0
 40
0.045
309
GRIDFORMAT_END
 95
        8
302
GRIDFORMAT
  1
GRIDFORMAT_BEGIN
 90
        0
 91
        1
 62
     0
 92
       -2
340
0
 93
        0
 40
0.045
309
GRIDFORMAT_END
 95
       16
302
GRIDFORMAT
  1
GRIDFORMAT_BEGIN
 90
        0
 91
        1
 62
     0
 92
       -2
340
0
 93
        0
 40
0.045
309
GRIDFORMAT_END
 95
       32
302
GRIDFORMAT
  1
GRIDFORMAT_BEGIN
 90
        0
 91
        1
 62
     0
 92
       -2
340
0
 93
        0
 40
0.045
309
GRIDFORMAT_END
309
TABLEFORMAT_END
  1
CELLSTYLE_BEGIN
 90
        1
 91
        1
300
_TITLE
309
CELLSTYLE_END
300
CELLSTYLE
  1
TABLEFORMAT_BEGIN
 90
        5
170
     1
 91
        0
 92
        0
 62
   257
 93
        1
300
CONTENTFORMAT
  1
CONTENTFORMAT_BEGIN
 90
        0
 91
        0
 92
        4
 93
        0
300

 40
0.0
140
1.0
 94
        5
 62
     0
340
10
144
4.5
309
CONTENTFORMAT_END
171
     1
301
MARGIN
  1
CELLMARGIN_BEGIN
 40
1.5
 40
1.5
 40
1.5
 40
1.5
 40
0.18
 40
0.18
309
CELLMARGIN_END
 94
        6
 95
        1
302
GRIDFORMAT
  1
GRIDFORMAT_BEGIN
 90
        0
 91
        1
 62
     0
 92
       -2
340
0
 93
        0
 40
0.045
309
GRIDFORMAT_END
 95
        2
302
GRIDFORMAT
  1
GRIDFORMAT_BEGIN
 90
        0
 91
        1
 62
     0
 92
       -2
340
0
 93
        0
 40
0.045
309
GRIDFORMAT_END
 95
        4
302
GRIDFORMAT
  1
GRIDFORMAT_BEGIN
 90
        0
 91
        1
 62
     0
 92
       -2
340
0
 93
        0
 40
0.045
309
GRIDFORMAT_END
 95
        8
302
GRIDFORMAT
  1
GRIDFORMAT_BEGIN
 90
        0
 91
        1
 62
     0
 92
       -2
340
0
 93
        0
 40
0.045
309
GRIDFORMAT_END
 95
       16
302
GRIDFORMAT
  1
GRIDFORMAT_BEGIN
 90
        0
 91
        1
 62
     0
 92
       -2
340
0
 93
        0
 40
0.045
309
GRIDFORMAT_END
 95
       32
302
GRIDFORMAT
  1
GRIDFORMAT_BEGIN
 90
        0
 91
        1
 62
     0
 92
       -2
340
0
 93
        0
 40
0.045
309
GRIDFORMAT_END
309
TABLEFORMAT_END
  1
CELLSTYLE_BEGIN
 90
        2
 91
        1
300
_HEADER
309
CELLSTYLE_END
300
CELLSTYLE
  1
TABLEFORMAT_BEGIN
 90
        5
170
     1
 91
        0
 92
        0
 62
   257
 93
        1
300
CONTENTFORMAT
  1
CONTENTFORMAT_BEGIN
 90
        0
 91
        0
 92
        4
 93
        0
300

 40
0.0
140
1.0
 94
        2
 62
     0
340
10
144
4.5
309
CONTENTFORMAT_END
171
     1
301
MARGIN
  1
CELLMARGIN_BEGIN
 40
1.5
 40
1.5
 40
1.5
 40
1.5
 40
0.18
 40
0.18
309
CELLMARGIN_END
 94
        6
 95
        1
302
GRIDFORMAT
  1
GRIDFORMAT_BEGIN
 90
        0
 91
        1
 62
     0
 92
       -2
340
0
 93
        0
 40
0.045
309
GRIDFORMAT_END
 95
        2
302
GRIDFORMAT
  1
GRIDFORMAT_BEGIN
 90
        0
 91
        1
 62
     0
 92
       -2
340
0
 93
        0
 40
0.045
309
GRIDFORMAT_END
 95
        4
302
GRIDFORMAT
  1
GRIDFORMAT_BEGIN
 90
        0
 91
        1
 62
     0
 92
       -2
340
0
 93
        0
 40
0.045
309
GRIDFORMAT_END
 95
        8
302
GRIDFORMAT
  1
GRIDFORMAT_BEGIN
 90
        0
 91
        1
 62
     0
 92
       -2
340
0
 93
        0
 40
0.045
309
GRIDFORMAT_END
 95
       16
302
GRIDFORMAT
  1
GRIDFORMAT_BEGIN
 90
        0
 91
        1
 62
     0
 92
       -2
340
0
 93
        0
 40
0.045
309
GRIDFORMAT_END
 95
       32
302
GRIDFORMAT
  1
GRIDFORMAT_BEGIN
 90
        0
 91
        1
 62
     0
 92
       -2
340
0
 93
        0
 40
0.045
309
GRIDFORMAT_END
309
TABLEFORMAT_END
  1
CELLSTYLE_BEGIN
 90
        3
 91
        2
300
_DATA
309
CELLSTYLE_END
  0
FIELD
  5
10BD
102
{ACAD_REACTORS
330
10BC
102
}
330
10BC
100
AcDbField
  1
_text
  2
%<\_FldIdx 0>%-%<\_FldIdx 1>%
 90
        2
360
10BE
360
10BF
 97
        0
 91
       63
 92
        0
 94
        9
 95
        2
 96
        0
300

 93
        0
  7
ACFD_FIELD_VALUE
 93
        3
 90
        0
 94
        0
300

302

304
ACVALUE_END
301

 98
        0
  0
FIELD
  5
10BE
330
10BD
100
AcDbField
  1
AcVar
  2
\AcVar ViewSectionStartId
 90
        0
 97
        0
 91
       63
 92
        0
 94
       43
 95
        2
 96
        0
300

 93
        1
  6
Variable
 93
        2
 90
        4
  1
ViewSectionStartId
 94
        0
300

302

304
ACVALUE_END
  7
ACFD_FIELD_VALUE
 93
        1
 90
        0
 94
        0
300

302

304
ACVALUE_END
301
----
 98
        4
  0
FIELD
  5
10BF
330
10BD
100
AcDbField
  1
AcVar
  2
\AcVar ViewSectionEndId
 90
        0
 97
        0
 91
       63
 92
        0
 94
       43
 95
        2
 96
        0
300

 93
        1
  6
Variable
 93
        2
 90
        4
  1
ViewSectionEndId
 94
        0
300

302

304
ACVALUE_END
  7
ACFD_FIELD_VALUE
 93
        1
 90
        0
 94
        0
300

302

304
ACVALUE_END
301
----
 98
        4
  0
ENDSEC
  0
SECTION
  2
ACDSDATA
 70
     2
 71
     7
  0
ACDSSCHEMA
 90
        0
  1
AcDb_Thumbnail_Schema
  2
AcDbDs::ID
280
    10
 91
        8
  2
Thumbnail_Data
280
    15
 91
        0
101
ACDSRECORD
 95
        0
 90
        1
  2
AcDbDs::TreatedAsObjectData
280
     1
291
     1
101
ACDSRECORD
 95
        0
 90
        2
  2
AcDbDs::Legacy
280
     1
291
     1
101
ACDSRECORD
  1
AcDbDs::ID
 90
        3
  2
AcDs:Indexable
280
     1
291
     1
101
ACDSRECORD
  1
AcDbDs::ID
 90
        4
  2
AcDbDs::HandleAttribute
280
     7
282
     1
  0
ACDSSCHEMA
 90
        1
  1
AcDbDs::TreatedAsObjectDataSchema
  2
AcDbDs::TreatedAsObjectData
280
     1
 91
        0
  0
ACDSSCHEMA
 90
        2
  1
AcDbDs::LegacySchema
  2
AcDbDs::Legacy
280
     1
 91
        0
  0
ACDSSCHEMA
 90
        3
  1
AcDbDs::IndexedPropertySchema
  2
AcDs:Indexable
280
     1
 91
        0
  0
ACDSSCHEMA
 90
        4
  1
AcDbDs::HandleAttributeSchema
  2
AcDbDs::HandleAttribute
280
     7
 91
        1
284
     1
  0
ACDSRECORD
 90
        0
  2
AcDbDs::ID
280
    10
320
2CA4
  2
Thumbnail_Data
280
    15
 94
      907
310
89504E470D0A1A0A0000000D4948445200000100000000BF08030000002647F24000000300504C5445212830000000C8C8C80000000000000000000000000000000000000000000000000000330000660000990000CC0000FF0033000033330033660033990033CC0033FF0066000066330066660066990066CC0066FF0099
310
000099330099660099990099CC0099FF00CC0000CC3300CC6600CC9900CCCC00CCFF00FF0000FF3300FF6600FF9900FFCC00FFFF3300003300333300663300993300CC3300FF3333003333333333663333993333CC3333FF3366003366333366663366993366CC3366FF3399003399333399663399993399CC3399FF33CC00
310
33CC3333CC6633CC9933CCCC33CCFF33FF0033FF3333FF6633FF9933FFCC33FFFF6600006600336600666600996600CC6600FF6633006633336633666633996633CC6633FF6666006666336666666666996666CC6666FF6699006699336699666699996699CC6699FF66CC0066CC3366CC6666CC9966CCCC66CCFF66FF0066
310
FF3366FF6666FF9966FFCC66FFFF9900009900339900669900999900CC9900FF9933009933339933669933999933CC9933FF9966009966339966669966999966CC9966FF9999009999339999669999999999CC9999FF99CC0099CC3399CC6699CC9999CCCC99CCFF99FF0099FF3399FF6699FF9999FFCC99FFFFCC0000CC00
310
33CC0066CC0099CC00CCCC00FFCC3300CC3333CC3366CC3399CC33CCCC33FFCC6600CC6633CC6666CC6699CC66CCCC66FFCC9900CC9933CC9966CC9999CC99CCCC99FFCCCC00CCCC33CCCC66CCCC99CCCCCCCCCCFFCCFF00CCFF33CCFF66CCFF99CCFFCCCCFFFFFF0000FF0033FF0066FF0099FF00CCFF00FFFF3300FF3333
310
FF3366FF3399FF33CCFF33FFFF6600FF6633FF6666FF6699FF66CCFF66FFFF9900FF9933FF9966FF9999FF99CCFF99FFFFCC00FFCC33FFCC66FFCC99FFCCCCFFCCFFFFFF00FFFF33FFFF66FFFF99FFFFCCFFFFFF0000000D0D0D1A1A1A2828283535354343435050505D5D5D6B6B6B787878868686939393A1A1A1AEAEAEBB
310
BBBBC9C9C9D6D6D6E4E4E4F1F1F1FFFFFF000000000000000000000000000000000000000000000000000000000000B21171F6000000464944415478DAEDC13101000000C2A0F54F6D085FA00000000000000000000000000000000000000000000000000000000000000000000000000000000000000000000000E036BFBF
310
000103F617CF0000000049454E44AE426082
  0
ACDSRECORD
 90
        0
  2
AcDbDs::ID
280
    10
320
169
  2
Thumbnail_Data
280
    15
 94
     1332
310
89504E470D0A1A0A0000000D4948445200000100000000A20803000000990FE30500000300504C5445212830000000C8C8C80000000000000000000000000000000000000000000000000000330000660000990000CC0000FF0033000033330033660033990033CC0033FF0066000066330066660066990066CC0066FF0099
310
000099330099660099990099CC0099FF00CC0000CC3300CC6600CC9900CCCC00CCFF00FF0000FF3300FF6600FF9900FFCC00FFFF3300003300333300663300993300CC3300FF3333003333333333663333993333CC3333FF3366003366333366663366993366CC3366FF3399003399333399663399993399CC3399FF33CC00
310
33CC3333CC6633CC9933CCCC33CCFF33FF0033FF3333FF6633FF9933FFCC33FFFF6600006600336600666600996600CC6600FF6633006633336633666633996633CC6633FF6666006666336666666666996666CC6666FF6699006699336699666699996699CC6699FF66CC0066CC3366CC6666CC9966CCCC66CCFF66FF0066
310
FF3366FF6666FF9966FFCC66FFFF9900009900339900669900999900CC9900FF9933009933339933669933999933CC9933FF9966009966339966669966999966CC9966FF9999009999339999669999999999CC9999FF99CC0099CC3399CC6699CC9999CCCC99CCFF99FF0099FF3399FF6699FF9999FFCC99FFFFCC0000CC00
310
33CC0066CC0099CC00CCCC00FFCC3300CC3333CC3366CC3399CC33CCCC33FFCC6600CC6633CC6666CC6699CC66CCCC66FFCC9900CC9933CC9966CC9999CC99CCCC99FFCCCC00CCCC33CCCC66CCCC99CCCCCCCCCCFFCCFF00CCFF33CCFF66CCFF99CCFFCCCCFFFFFF0000FF0033FF0066FF0099FF00CCFF00FFFF3300FF3333
310
FF3366FF3399FF33CCFF33FFFF6600FF6633FF6666FF6699FF66CCFF66FFFF9900FF9933FF9966FF9999FF99CCFF99FFFFCC00FFCC33FFCC66FFCC99FFCCCCFFCCFFFFFF00FFFF33FFFF66FFFF99FFFFCCFFFFFF0000000D0D0D1A1A1A2828283535354343435050505D5D5D6B6B6B787878868686939393A1A1A1AEAEAEBB
310
BBBBC9C9C9D6D6D6E4E4E4F1F1F1FFFFFF000000000000000000000000000000000000000000000000000000000000B21171F60000011D4944415478DAEDDD4B0AC2301440D16E28FBDFCC5B42270E32B7FE8B1F106BFA023977D28A8AE6D05290F29C26499224E9A74A5765006C7FC9F27C7CF7A6B2FDCBB400A8DD9405D0
310
CBE908000000000000000000000000000000000000000000000000000000000000000000000000000000000000000000000000000000FC0D206AF4B1FE7004A400D40A00000000000000000000000000000000180DC04F620000000000000000000000000000000000000000000000000080262B1C7DB2742925CE43D4E3A9
310
65F1A7CD28008F851F96AEDB4C80DD86DEDF3FE9CDEDD931CF69A7407CB85D3C2E73F35B00AC5A3DEC75BC7ED323E0B61B35EF2AB07FF1BA1B595781D1FF624392244992244992244992244992244992244952571D0111E7C5CED53675980000000049454E44AE42608286631967407D672966C07D078AE71F77D26C02F3E1
310
7CE5C0FD5480885D42802542791DC06E5FB4454680CB5E03B0DB36406C7B06ECB7FFDDE1B25D80549F04FFFE28901EA0FCD967A52C0051C6738932FD9723FA9DF5BF062F5A79789D7E9C65069CACF144315D3FBC09AC70250588F9ED2F67EF61FDF146FE21FB805F0E680B00B53E19A0FF6FC00C7805C00BBEBEA8CF7D7CCD
310
F5C548820000D838FF9B01CAB6014AFC3780F281852449922449922449922449922449922449926EF70DAF1801257F9AFF7A0000000049454E44AE426082
  0
ENDSEC
  0
EOF
